Extracted 2012 1080p BluRay X264 DTS-FGT

Torrent Details


Extracted 2012 1080p BluRay x264 DTS<span style=color:#fc9c6d>-FGT</span>

NAME
Extracted 2012 1080p BluRay x264 DTS-FGT.torrent
CATEGORY
Movies
INFOHASH
580641379896fadff62af466fc58d628c7bddd90
SIZE
5.3 GB in 3 files
ADDED
Uploaded on 10-03-2016 by our crawler pet called "Spidey".
SWARM
0 seeders & 0 peers
RATING
No votes yet.

Please login to vote for this torrent.


Description

USE MAGNET LINK, IF DOWNLOAD BUTTON DOESN'T WORK

http://q.gs/9pz6q

http://q.gs/9pz6r

http://q.gs/9pz6s

http://q.gs/9pz6t

http://q.gs/9pz6u

http://q.gs/9pz6v







MediaInfo

Video
ID : 1
Format : AVC
Format/Info : Advanced Video Codec
Format profile : [email protected]
Format settings, CABAC : Yes
Format settings, ReFrames : 5 frames
Codec ID : V_MPEG4/ISO/AVC
Duration : 1h 28mn
Bit rate : 7 000 Kbps
Width : 1 920 pixels
Height : 798 pixels
Display aspect ratio : 2.40:1
Frame rate mode : Constant
Frame rate : 23.976 (24000/1001) fps
Color space : YUV
Chroma subsampling : 4:2:0
Bit depth : 8 bits
Scan type : Progressive
Bits/(Pixel*Frame) : 0.191
Stream size : 4.24 GiB (80%)
Writing library : x264 core 129 r2230 1cffe9f
Encoding settings : cabac=1 / ref=5 / deblock=1:-3:-3 / analyse=0x3:0x113 / me=tesa / subme=11 / psy=1 / psy_rd=1.05:0.00 / mixed_ref=1 / me_range=48 / chroma_me=1 / trellis=2 / 8x8dct=1 / cqm=0 / deadzone=21,11 / fast_pskip=0 / chroma_qp_offset=-2 / threads=16 / lookahead_threads=2 / sliced_threads=0 / nr=0 / decimate=0 / interlaced=0 / bluray_compat=0 / constrained_intra=0 / bframes=8 / b_pyramid=2 / b_adapt=2 / b_bias=0 / direct=3 / weightb=1 / open_gop=0 / weightp=2 / keyint=240 / keyint_min=23 / scenecut=40 / intra_refresh=0 / rc_lookahead=40 / rc=2pass / mbtree=0 / bitrate=7000 / ratetol=1.0 / qcomp=0.70 / qpmin=0 / qpmax=69 / qpstep=4 / cplxblur=20.0 / qblur=0.5 / vbv_maxrate=50000 / vbv_bufsize=62500 / nal_hrd=none / ip_ratio=1.40 / pb_ratio=1.30 / aq=1:1.05
Language : English
Default : Yes
Forced : No
Color range : Limited
Color primaries : BT.709
Transfer characteristics : BT.709
Matrix coefficients : BT.709

Audio
ID : 2
Format : DTS
Format/Info : Digital Theater Systems
Mode : 16
Format settings, Endianness : Big
Codec ID : A_DTS
Duration : 1h 28mn
Bit rate mode : Constant
Bit rate : 1 509 Kbps
Channel(s) : 6 channels
Channel positions : Front: L C R, Side: L R, LFE
Sampling rate : 48.0 KHz
Frame rate : 93.750 fps (512 spf)
Bit depth : 24 bits
Compression mode : Lossy
Stream size : 959 MiB (18%)
Language : English
Default : No
Forced : No

Text #1
ID : 3
Format : UTF-8
Codec ID : S_TEXT/UTF8
Codec ID/Info : UTF-8 Plain Text
Title : English
Language : English
Default : No
Forced : No

Text #2
ID : 4
Format : UTF-8
Codec ID : S_TEXT/UTF8
Codec ID/Info : UTF-8 Plain Text
Title : Finnish
Language : Finnish
Default : No
Forced : No

Text #3
ID : 5
Format : UTF-8
Codec ID : S_TEXT/UTF8
Codec ID/Info : UTF-8 Plain Text
Title : Polish
Language : Polish
Default : No
Forced : No

Text #4
ID : 6
Format : UTF-8
Codec ID : S_TEXT/UTF8
Codec ID/Info : UTF-8 Plain Text
Title : Spanish
Language : Spanish
Default : No
Forced : No

Text #5
ID : 7
Format : UTF-8
Codec ID : S_TEXT/UTF8
Codec ID/Info : UTF-8 Plain Text
Title : Swedish
Language : Swedish
Default : No
Forced : No

Menu
00:00:00.000 : en:Chapter 01
00:08:10.948 : en:Chapter 02
00:16:35.994 : en:Chapter 03
00:25:47.003 : en:Chapter 04
00:35:21.953 : en:Chapter 05
00:45:43.991 : en:Chapter 06
00:53:41.968 : en:Chapter 07
01:02:02.927 : en:Chapter 08
01:08:15.925 : en:Chapter 09
01:14:02.896 : en:Chapter 10
01:22:08.924 : en:Chapter 11
01:25:06.893 : en:Chapter 12
01:26:39.944 : en:Chapter 13
01:28:46.904 : en:Chapter 14




Trailer: Play trailer
Extracted.2012.1080p.BluRay.x264.DTS-FGT http://imdb.com/title/tt1757746/
Rating:
Currently 5.00/512345
Rating: 5.0/5 (1 vote cast)

Category: Movies/x264/1080
Size: 5.28 GB
Show/Hide Files:
3 files
Added: 2016-03-09 20:51:30
Title: Extracted (2012)
IMDB Rating: 6.6/10 from 9831 users Updated : 2016-03-09
Genres: Drama , Sci-Fi
Actors: Sasha Roiz , Jenny Mollen , Dominic Bogart , Richard Riehle , Nick Jameson , Rodney Eastman , Frank Ashmore , Brad Culver , Ty Simpkins ,
Sara Tomko , Augie Duke , Mattie Grace Campos , Jen Davis , Bernhard Forcher , Darren Melameth
Director: Nir Paniry
Runtime: 85
Year: 2012
Plot: A scientist who has invented a technique to watch people's memories finds himself in a dangerous situation after he's tasked with entering a heroin addict's mind to
see whether the man committed murder.
Hits: 951

Discussion

Comments 0

Post Your Comment

Files in this torrent

FILENAMESIZE
Extracted.2012.1080p.BluRay.x264.DTS-FGT.mkv5.3 GB
Extracted.2012.1080p.BluRay.x264.DTS-FGT.nfo7 KB
RARBG.com.txt34 B

Alternative Torrents for 'Extracted BluRay DTS'.

TORRENT NAMEADDEDSIZESEEDSPEERSHEALTH
4/27/20196.9 GB00
11/17/2018871 MB00
12/22/20174.4 GB00
12/22/20174.4 GB00
10/16/20164.9 GB00
3/10/20165.3 GB00
2/2/20133.3 GB00
12/5/20123.3 GB00
12/4/20124.4 GB00
11/29/20127 GB00
11/29/20124.4 GB00