2 Broke Girls S05E15 HDTV X264-LOL[rarbg]

Torrent Details

2 Broke Girls S05E15 HDTV x264<span style=color:#fc9c6d>-LOL[rarbg]</span>

NAME
2 Broke Girls S05E15 HDTV x264-LOL[rarbg].torrent
CATEGORY
Television
INFOHASH
3d335f656c17d38f3e2e842f0e8accca882d94ac
SIZE
135 MB in 3 files
ADDED
Uploaded on 11-03-2016 by our crawler pet called "Spidey".
SWARM
0 seeders & 0 peers
RATING
No votes yet.

Please login to vote for this torrent.


Description

https://rarbg.to
2.Broke.Girls.S05E15.HDTV.x264-LOL[rartv]

Screens :


Mediainfo :

Video
ID : 1
Format : AVC
Format/Info : Advanced Video Codec
Format profile : [email protected]
Format settings, CABAC : Yes
Format settings, ReFrames : 5 frames
Codec ID : avc1
Codec ID/Info : Advanced Video Coding
Duration : 21mn 26s
Bit rate : 762 Kbps
Maximum bit rate : 3 965 Kbps
Width : 720 pixels
Height : 404 pixels
Display aspect ratio : 16:9
Frame rate mode : Constant
Frame rate : 23.976 (24000/1001) fps
Color space : YUV
Chroma subsampling : 4:2:0
Bit depth : 8 bits
Scan type : Progressive
Bits/(Pixel*Frame) : 0.109
Stream size : 117 MiB (87%)
Writing library : x264 core 148 r2665 a01e339
Encoding settings : cabac=1 / ref=5 / deblock=1:1:1 / analyse=0x3:0x133 / me=umh / subme=9 / psy=1 / psy_rd=1.00:0.00 / mixed_ref=1 / me_range=16 / chroma_me=1 / trellis=2 / 8x8dct=1 / cqm=0 / deadzone=21,11 / fast_pskip=1 / chroma_qp_offset=-2 / threads=13 / lookahead_threads=1 / sliced_threads=0 / nr=0 / decimate=1 / interlaced=0 / bluray_compat=0 / constrained_intra=0 / bframes=3 / b_pyramid=2 / b_adapt=2 / b_bias=0 / direct=3 / weightb=1 / open_gop=0 / weightp=2 / keyint=250 / keyint_min=23 / scenecut=40 / intra_refresh=0 / rc_lookahead=60 / rc=crf / mbtree=1 / crf=20.0 / qcomp=0.60 / qpmin=0 / qpmax=69 / qpstep=4 / ip_ratio=1.40 / aq=1:1.00
Encoded date : UTC 2016-03-10 19:35:58
Tagged date : UTC 2016-03-10 19:35:58
Color range : Limited
Matrix coefficients : BT.709

Audio
ID : 2
Format : AAC
Format/Info : Advanced Audio Codec
Format profile : LC
Codec ID : 40
Duration : 21mn 26s
Bit rate mode : Variable
Bit rate : 113 Kbps
Maximum bit rate : 145 Kbps
Channel(s) : 2 channels
Channel positions : Front: L R
Sampling rate : 48.0 KHz
Frame rate : 46.875 fps (1024 spf)
Compression mode : Lossy
Stream size : 17.3 MiB (13%)
Encoded date : UTC 2016-03-10 19:35:58
Tagged date : UTC 2016-03-10 19:35:58

Discussion

Comments 0

Post Your Comment

Files in this torrent

FILENAMESIZE
2.broke.girls.515.hdtv-lol.mp4134.8 MB
2.broke.girls.515.hdtv-lol.nfo4.3 KB
RARBG.com.txt34 B

Alternative Torrents for 'Broke Girls'.

TORRENT NAMEADDEDSIZESEEDSPEERSHEALTH
7/10/20186.3 GB189
8/10/202123.1 GB1693
7/10/20183.1 GB156
3/2/202096.4 GB1455
9/13/20194.1 GB1014
7/11/20183 GB87
9/7/20186.5 GB64
12/17/2017490 MB31
12/14/201917.8 GB23
6/12/201920.6 GB24
9/8/20189.6 GB23
3/17/2018393 MB22
2/11/2018875 MB20
12/19/2017459 MB20
12/14/2017440 MB22