Kung Fu Panda Secrets Of The Scroll 2016 SHORT WEBRip 480p X264 AAC-VYTO [P2PDL Com]

Torrent Details


Kung Fu Panda Secrets of the Scroll 2016 SHORT WEBRip 480p x264 AAC-VYTO [P2PDL com]

NAME
Kung Fu Panda Secrets of the Scroll 2016 SHORT WEBRip 480p x264 AAC-VYTO [P2PDL com].torrent
CATEGORY
Movies
INFOHASH
48999163077287f186796b0f0058c14cc7fbafcb
SIZE
90 MB in 4 files
ADDED
Uploaded on 22-03-2016 by our crawler pet called "Spidey".
SWARM
0 seeders & 0 peers
RATING
No votes yet.

Please login to vote for this torrent.


Description

Kung.Fu.Panda.Secrets.of.the.Scroll.2016.SHORT.WEBRip.480p.x264.AAC-VYTO


Genre: Short, Action, Adventure
IMDb: http://www.imdb.com/title/tt5513770/


Format : MPEG-4
File size : 85.3 MiB
Duration : 23mn 27s
Overall bit rate : 508 Kbps

Video
Format : AVC
Bit rate : 473 Kbps
Width : 720 pixels
Height : 400 pixels
Display aspect ratio : 16:9
Frame rate mode : Constant
Frame rate : 23.976 (24000/1001) fps
Bit depth : 8 bits
Stream size : 79.4 MiB (93%)
Writing library : x264

Audio
Format : AAC
Bit rate mode : Variable
Bit rate : 31.9 Kbps
Channel(s) : 2 channels
Channel positions : Front: L R
Sampling rate : 48.0 KHz
Frame rate : 23.438 fps
Stream size : 5.31 MiB (6%)
Language : English

Subtitle : Yes (English)

Screen Shots: (click on image to see in full size)









-------------------------------------------------------------------------------------


Encoder Notes: Looking For Early Access To Anything You Can Provide WEBDL, DVDScr, DVDR, BluRay, Direct
Audio, Music Releases and Seedboxes.




Discussion

Comments 0

Post Your Comment

Files in this torrent

FILENAMESIZE
Kung.Fu.Panda.Secrets.of.the.Scroll.2016.SHORT.WEBRip.480p.x264.AAC-VYTO.mp485.3 MB
Kung.Fu.Panda.Secrets.of.the.Scroll.2016.SHORT.WEBRip.480p.x264.AAC-VYTO.nfo2.4 KB
Sample.mp45 MB
VYTO.png39.3 KB

Alternative Torrents for 'Kung Fu Panda Secrets of Scroll SHORT AACVYTO PPDL com'.

TORRENT NAMEADDEDSIZESEEDSPEERSHEALTH
10/17/20203.8 GB119182
10/18/20201.2 GB962174
10/27/20201.5 GB897546
10/18/20202.4 GB847141
10/16/2020797 MB79397
10/9/20201.9 GB793164
10/17/20205.6 GB74174
10/18/2020902 MB54160
10/19/2020253 MB54098
10/8/20201.6 GB53071
10/17/20201.2 GB522508
10/28/20201 GB519432
10/23/2020796 MB482117
10/21/20201.1 GB459342
10/28/20202.1 GB456342