Sex Lies And Videotape 1989 BRRip XviD MP3-RARBG

Torrent Details


Sex Lies And Videotape 1989 BRRip XviD MP3-RARBG

NAME
Sex Lies And Videotape 1989 BRRip XviD MP3-RARBG.torrent
CATEGORY
Movies
INFOHASH
84bc422fe24136dbfddd7a975c830330a2c55e7b
SIZE
1.3 GB in 4 files
ADDED
Uploaded on 25-03-2016 by our crawler pet called "Spidey".
SWARM
0 seeders & 0 peers
RATING
No votes yet.

Please login to vote for this torrent.


Description

https://rarbg.to
Sex.Lies.And.Videotape.1989.BRRip.XviD.MP3-RARBG

Screens :










Mediainfo :

Video
ID : 0
Format : MPEG-4 Visual
Format profile : [email protected]
Format settings, BVOP : No
Format settings, QPel : No
Format settings, GMC : No warppoints
Format settings, Matrix : Default (H.263)
Codec ID : XVID
Codec ID/Hint : XviD
Duration : 1h 39mn
Bit rate : 1 599 Kbps
Width : 720 pixels
Height : 390 pixels
Display aspect ratio : 1.85:1
Frame rate : 23.976 fps
Color space : YUV
Chroma subsampling : 4:2:0
Bit depth : 8 bits
Scan type : Progressive
Compression mode : Lossy
Bits/(Pixel*Frame) : 0.238
Stream size : 1.12 GiB (89%)
Title : RARBG.COM - Sex.Lies.And.Videotape.1989.BRRip.XviD.MP3-RARBG
Writing library : Lavc56.60.100

Audio
ID : 1
Format : MPEG Audio
Format version : Version 1
Format profile : Layer 3
Mode : Joint stereo
Mode extension : MS Stereo
Codec ID : 55
Codec ID/Hint : MP3
Duration : 1h 40mn
Bit rate mode : Constant
Bit rate : 192 Kbps
Channel(s) : 2 channels
Sampling rate : 48.0 KHz
Compression mode : Lossy
Stream size : 137 MiB (11%)
Alignment : Aligned on interleaves
Interleave, duration : 24 ms (0.58 video frame)
Interleave, preload duration : 24 ms
Title : RARBG.COM - Sex.Lies.And.Videotape.1989.BRRip.XviD.MP3-RARBG

Discussion

Comments 0

Post Your Comment

Files in this torrent

FILENAMESIZE
RARBG.COM.avi1.1 MB
RARBG.COM.txt34 B
Sex.Lies.And.Videotape.1989.BRRip.XviD.MP3-RARBG.avi1.3 GB
Sex.Lies.And.Videotape.1989.BRRip.XviD.MP3-RARBG.nfo3.1 KB

Alternative Torrents for 'Sex Lies And Videotape'.

TORRENT NAMEADDEDSIZESEEDSPEERSHEALTH
1/29/202112.2 GB00
9/27/2020715 MB00
7/7/20201.6 GB00
8/19/201930.7 GB00
10/29/2018350 MB00
10/23/20185.5 GB00
9/12/2018289 MB00
9/12/2018289 MB00
9/12/2018289 MB00
9/3/2018340 MB00
8/24/20185.5 GB00
7/17/20189.8 GB00
7/17/20185.5 GB00
3/20/201814.4 GB00
1/25/20183.6 GB00