Shameless US S06E12 HDTV X264-LOL[rarbg]

Torrent Details


Shameless US S06E12 HDTV x264<span style=color:#fc9c6d>-LOL[rarbg]</span>

NAME
Shameless US S06E12 HDTV x264-LOL[rarbg].torrent
CATEGORY
Television
INFOHASH
6735deb691df3401b5aed2a1775bf6d6fa6198ff
SIZE
377 MB in 3 files
ADDED
Uploaded on 04-04-2016 by our crawler pet called "Spidey".
SWARM
0 seeders & 0 peers
RATING
No votes yet.

Please login to vote for this torrent.


Description

https://rarbg.to
Shameless.US.S06E12.HDTV.x264-LOL[rartv]

Screens :


Mediainfo :

Video
ID : 1
Format : AVC
Format/Info : Advanced Video Codec
Format profile : [email protected]
Format settings, CABAC : Yes
Format settings, ReFrames : 5 frames
Codec ID : avc1
Codec ID/Info : Advanced Video Coding
Duration : 56mn 24s
Bit rate : 812 Kbps
Maximum bit rate : 4 354 Kbps
Width : 720 pixels
Height : 404 pixels
Display aspect ratio : 16:9
Frame rate mode : Constant
Frame rate : 23.976 (24000/1001) fps
Color space : YUV
Chroma subsampling : 4:2:0
Bit depth : 8 bits
Scan type : Progressive
Bits/(Pixel*Frame) : 0.116
Stream size : 328 MiB (87%)
Writing library : x264 core 148 r2665 a01e339
Encoding settings : cabac=1 / ref=5 / deblock=1:1:1 / analyse=0x3:0x133 / me=umh / subme=9 / psy=1 / psy_rd=1.00:0.00 / mixed_ref=1 / me_range=16 / chroma_me=1 / trellis=2 / 8x8dct=1 / cqm=0 / deadzone=21,11 / fast_pskip=1 / chroma_qp_offset=-2 / threads=13 / lookahead_threads=1 / sliced_threads=0 / nr=0 / decimate=1 / interlaced=0 / bluray_compat=0 / constrained_intra=0 / bframes=3 / b_pyramid=2 / b_adapt=2 / b_bias=0 / direct=3 / weightb=1 / open_gop=0 / weightp=2 / keyint=250 / keyint_min=23 / scenecut=40 / intra_refresh=0 / rc_lookahead=60 / rc=crf / mbtree=1 / crf=20.0 / qcomp=0.60 / qpmin=0 / qpmax=69 / qpstep=4 / ip_ratio=1.40 / aq=1:1.00
Encoded date : UTC 2016-04-04 01:30:46
Tagged date : UTC 2016-04-04 01:30:46
Color range : Limited
Matrix coefficients : BT.709

Audio
ID : 2
Format : AAC
Format/Info : Advanced Audio Codec
Format profile : LC
Codec ID : 40
Duration : 56mn 24s
Bit rate mode : Variable
Bit rate : 119 Kbps
Maximum bit rate : 151 Kbps
Channel(s) : 2 channels
Channel positions : Front: L R
Sampling rate : 48.0 KHz
Frame rate : 46.875 fps (1024 spf)
Compression mode : Lossy
Stream size : 48.0 MiB (13%)
Encoded date : UTC 2016-04-04 01:30:46
Tagged date : UTC 2016-04-04 01:30:46

Discussion

Comments 0

Post Your Comment

Files in this torrent

FILENAMESIZE
RARBG.com.txt34 B
shameless.us.612.hdtv-lol.mp4377.4 MB
shameless.us.612.hdtv-lol.nfo4.3 KB

Alternative Torrents for 'Shameless US'.

TORRENT NAMEADDEDSIZESEEDSPEERSHEALTH
2/14/20214 GB1555234
2/14/2021549 MB716143
2/14/20212.2 GB396126
2/14/2021341 MB34556
1/31/2021368 MB32176
2/14/20214 GB26632
2/14/2021448 MB22762
12/20/2020549 MB22132
2/14/20212.2 GB21559
1/10/2021369 MB20641
1/31/2021463 MB20564
12/6/2020449 MB19325
2/14/2021443 MB18850
12/13/2020361 MB18216
2/14/20212.2 GB17527