Shameless US S06E12 1080p HDTV X264-DIMENSION[rarbg]

Torrent Details


Shameless US S06E12 1080p HDTV X264<span style=color:#fc9c6d>-DIMENSION[rarbg]</span>

NAME
Shameless US S06E12 1080p HDTV X264-DIMENSION[rarbg].torrent
CATEGORY
Television
INFOHASH
86d6d09eda30c10c547c5687a7f48dfe644b4dce
SIZE
3.3 GB in 3 files
ADDED
Uploaded on 04-04-2016 by our crawler pet called "Spidey".
SWARM
0 seeders & 0 peers
RATING
No votes yet.

Please login to vote for this torrent.


Description

https://rarbg.to
Shameless.US.S06E12.1080p.HDTV.X264-DIMENSION[rartv]

Screens :


Mediainfo :

Video
ID : 1
Format : AVC
Format/Info : Advanced Video Codec
Format profile : [email protected]
Format settings, CABAC : Yes
Format settings, ReFrames : 4 frames
Codec ID : V_MPEG4/ISO/AVC
Duration : 56mn 24s
Bit rate : 7 542 Kbps
Width : 1 920 pixels
Height : 1 080 pixels
Display aspect ratio : 16:9
Frame rate mode : Constant
Frame rate : 23.976 (24000/1001) fps
Color space : YUV
Chroma subsampling : 4:2:0
Bit depth : 8 bits
Scan type : Progressive
Bits/(Pixel*Frame) : 0.152
Stream size : 2.97 GiB (90%)
Writing library : x264 core 148 r2665 a01e339
Encoding settings : cabac=1 / ref=4 / deblock=1:-2:-2 / analyse=0x3:0x113 / me=umh / subme=9 / psy=1 / psy_rd=1.00:0.00 / mixed_ref=1 / me_range=24 / chroma_me=1 / trellis=1 / 8x8dct=1 / cqm=0 / deadzone=21,11 / fast_pskip=0 / chroma_qp_offset=-2 / threads=12 / lookahead_threads=1 / sliced_threads=0 / nr=0 / decimate=1 / interlaced=0 / bluray_compat=0 / constrained_intra=0 / bframes=5 / b_pyramid=2 / b_adapt=2 / b_bias=0 / direct=3 / weightb=1 / open_gop=0 / weightp=2 / keyint=250 / keyint_min=23 / scenecut=40 / intra_refresh=0 / rc_lookahead=50 / rc=crf / mbtree=1 / crf=17.0 / qcomp=0.60 / qpmin=0 / qpmax=69 / qpstep=4 / ip_ratio=1.40 / aq=1:1.00
Language : English
Default : No
Forced : No

Audio
ID : 2
Format : AC-3
Format/Info : Audio Coding 3
Mode extension : CM (complete main)
Format settings, Endianness : Big
Codec ID : A_AC3
Duration : 56mn 24s
Bit rate mode : Constant
Bit rate : 640 Kbps
Channel(s) : 6 channels
Channel positions : Front: L C R, Side: L R, LFE
Sampling rate : 48.0 KHz
Frame rate : 31.250 fps (1536 spf)
Compression mode : Lossy
Delay relative to video : 28ms
Stream size : 258 MiB (8%)
Default : Yes
Forced : No

Discussion

Comments 0

Post Your Comment

Files in this torrent

FILENAMESIZE
RARBG.com.txt34 B
shameless.us.612.1080-dimension.nfo448 B
Shameless.US.S06E12.1080p.HDTV.X264-DIMENSION.mkv3.3 GB

Alternative Torrents for 'Shameless US'.

TORRENT NAMEADDEDSIZESEEDSPEERSHEALTH
2/14/20214 GB1555234
2/14/2021549 MB716143
2/14/20212.2 GB396126
2/14/2021341 MB34556
1/31/2021368 MB32176
2/14/20214 GB26632
2/14/2021448 MB22762
12/20/2020549 MB22132
2/14/20212.2 GB21559
1/10/2021369 MB20641
1/31/2021463 MB20564
12/6/2020449 MB19325
2/14/2021443 MB18850
12/13/2020361 MB18216
2/14/20212.2 GB17527