Bar Rescue S04E48 Getting Freaki At The Tiki 720p HDTV X264-DHD[rarbg]

Torrent Details


Bar Rescue S04E48 Getting Freaki at the Tiki 720p HDTV x264<span style=color:#fc9c6d>-DHD[rarbg]</span>

NAME
Bar Rescue S04E48 Getting Freaki at the Tiki 720p HDTV x264-DHD[rarbg].torrent
CATEGORY
Television
INFOHASH
527b113c6c0b12188be1c2070ed0e7c3b4f6278d
SIZE
983 MB in 3 files
ADDED
Uploaded on 12-04-2016 by our crawler pet called "Spidey".
SWARM
0 seeders & 0 peers
RATING
No votes yet.

Please login to vote for this torrent.


Description

https://rarbg.to
Bar.Rescue.S04E48.Getting.Freaki.at.the.Tiki.720p.HDTV.x264-DHD[rartv]

Screens :

[img]http://imagecurl.com/images/11505363448017931115_thumb.jpg[/img]
Mediainfo :

Video
ID : 1
Format : AVC
Format/Info : Advanced Video Codec
Format profile : [email protected]
Format settings, CABAC : Yes
Format settings, ReFrames : 5 frames
Codec ID : V_MPEG4/ISO/AVC
Duration : 41mn 24s
Bit rate : 2 931 Kbps
Width : 1 280 pixels
Height : 720 pixels
Display aspect ratio : 16:9
Frame rate mode : Constant
Frame rate : 23.976 (23976/1000) fps
Original frame rate : 23.976 (24000/1001) fps
Color space : YUV
Chroma subsampling : 4:2:0
Bit depth : 8 bits
Scan type : Progressive
Bits/(Pixel*Frame) : 0.133
Stream size : 868 MiB (88%)
Writing library : x264 core 148 r2665 a01e339
Encoding settings : cabac=1 / ref=5 / deblock=1:0:0 / analyse=0x3:0x113 / me=umh / subme=8 / psy=1 / psy_rd=1.00:0.00 / mixed_ref=1 / me_range=16 / chroma_me=1 / trellis=1 / 8x8dct=1 / cqm=0 / deadzone=21,11 / fast_pskip=1 / chroma_qp_offset=-2 / threads=12 / lookahead_threads=2 / sliced_threads=0 / nr=0 / decimate=1 / interlaced=0 / bluray_compat=0 / constrained_intra=0 / bframes=3 / b_pyramid=2 / b_adapt=2 / b_bias=0 / direct=3 / weightb=1 / open_gop=0 / weightp=2 / keyint=250 / keyint_min=23 / scenecut=40 / intra_refresh=0 / rc_lookahead=50 / rc=crf / mbtree=1 / crf=20.0 / qcomp=0.60 / qpmin=0 / qpmax=69 / qpstep=4 / ip_ratio=1.40 / aq=1:1.00
Default : Yes
Forced : No
Color range : Limited
Matrix coefficients : BT.709

Audio
ID : 2
Format : AC-3
Format/Info : Audio Coding 3
Mode extension : CM (complete main)
Format settings, Endianness : Big
Codec ID : A_AC3
Duration : 41mn 24s
Bit rate mode : Constant
Bit rate : 384 Kbps
Channel(s) : 2 channels
Channel positions : Front: L R
Sampling rate : 48.0 KHz
Frame rate : 31.250 fps (1536 spf)
Compression mode : Lossy
Stream size : 114 MiB (12%)
Default : Yes
Forced : No

Text
ID : 3
Format : UTF-8
Codec ID : S_TEXT/UTF8
Codec ID/Info : UTF-8 Plain Text
Duration : 40mn 59s
Bit rate : 132 bps
Count of elements : 1013
Stream size : 39.6 KiB (0%)
Language : English
Default : Yes
Forced : No

Discussion

Comments 0

Post Your Comment

Files in this torrent

FILENAMESIZE
bar.rescue.s04e48.720p-dhd.nfo487 B
Bar.Rescue.S04E48.Getting.Freaki.at.the.Tiki.720p.HDTV.x264-DHD.mkv982.6 MB
RARBG.com.txt34 B

Alternative Torrents for 'Bar Rescue Getting Freaki at Tiki'.

TORRENT NAMEADDEDSIZESEEDSPEERSHEALTH
4/22/2016983 MB00
4/12/2016280 MB00
4/12/2016274 MB00
4/12/2016983 MB00