Sherlock Season 1 S01 1080p BluRay DD 5.1 HEVC X265-LGC

Torrent Details

Sherlock Season 1 S01 1080p BluRay DD 5.1 HEVC x265<span style=color:#fc9c6d>-LGC</span>Sherlock Season 1 S01 1080p BluRay DD 5.1 HEVC x265<span style=color:#fc9c6d>-LGC</span>

NAME
Sherlock Season 1 S01 1080p BluRay DD 5.1 HEVC x265-LGC.torrent
CATEGORY
Television
INFOHASH
3d81f610ddc904abec0f1b4c713b632ff1a246d0
SIZE
3.9 GB in 3 files
ADDED
Uploaded on 23-04-2016 by our crawler pet called "Spidey".
SWARM
0 seeders & 0 peers
RATING
No votes yet.

Please login to vote for this torrent.


Description

http://i.jeded.com/i/sherlock-first-season.14128.jpg
WARNING: High Efficiency Video Coding HEVC x265
This is re-encoded with the new generation video codec HEVC. It will probably not work on your TV or BD player unless it's a recent one that supports x265 ! (or unless you plug a computer to your TV via HDMI)
Recommended:Windows OS MPC-HC Player with K-Lite self updating codec pack and MediaInfo combination for High Efficiency Video Coding HEVC x265 PLAYBACK NINITE
NINITE
Thread: LGC Releases
LGC Releases
Thread: LGC Releases
High Efficiency Video Coding HEVC x265
Sherlock.S01E01.A.Study.in.Pink.1080p.BluRay.DD.5.1.x265-LGC.mkv
Format : Matroska
Format version : Version 2
File size : 1.29 GiB
Duration : 1h 28mn
Overall bit rate : 2 102 Kbps
Encoded date : UTC
Writing application : HandBrake 0.10.2 2015060900
Writing library : Lavf55.12.0

Video
ID : 1
Format : HEVC
Format/Info : High Efficiency Video Coding
Format profile : [email protected]@Main
Codec ID : V_MPEGH/ISO/HEVC
Duration : 1h 28mn
Bit rate : 1 612 Kbps
Width : 1 920 pixels
Height : 1 080 pixels
Display aspect ratio : 16:9
Frame rate mode : Constant
Frame rate : 23.976 fps
Color space : YUV
Chroma subsampling : 4:2:0
Bit depth : 8 bits
Bits/(Pixel*Frame) : 0.032
Stream size : 1 016 MiB (77%)
Writing library : x265 1.5:[Windows][GCC 4.9.0][64 bit]
Encoding settings : wpp / ctu=32 / tu-intra-depth=1 / tu-inter-depth=1 / me=1 / subme=1 / merange=57 / no-rect / no-amp / max-merge=2 / temporal-mvp / early-skip / no-fast-cbf / rdpenalty=0 / no-tskip / no-tskip-fast / strong-intra-smoothing / no-lossless / no-cu-lossless / no-constrained-intra / fast-intra / open-gop / interlace=0 / keyint=240 / min-keyint=24 / scenecut=40 / rc-lookahead=15 / bframes=4 / bframe-bias=0 / b-adapt=0 / ref=1 / weightp / no-weightb / aq-mode=1 / aq-strength=1.00 / cbqpoffs=0 / crqpoffs=0 / rd=2 / psy-rd=0.30 / psy-rdoq=0.00 / signhide / lft / sao / no-sao-non-deblock / b-pyramid / no-cutree / rc=2 / pass / bitrate=1650 / qcomp=0.60 / qpmin=0 / qpmax=51 / qpstep=4 / cplxblur=20.0 / qblur=0.5 / ipratio=1.40 / pbratio=1.30
Default : Yes
Forced : No
Color range : Limited
Color primaries : BT.709
Transfer characteristics : BT.709
Matrix coefficients : BT.709

Audio
ID : 2
Format : AC-3
Format/Info : Audio Coding 3
Mode extension : CM (complete main)
Format settings, Endianness : Big
Codec ID : A_AC3
Duration : 1h 28mn
Bit rate mode : Constant
Bit rate : 448 Kbps
Channel(s) : 6 channels
Channel positions : Front: L C R, Side: L R, LFE
Sampling rate : 48.0 KHz
Compression mode : Lossy
Stream size : 282 MiB (21%)
Title : Surround
Language : English
Default : Yes
Forced : No

Text
ID : 3
Format : ASS
Codec ID : S_TEXT/ASS
Codec ID/Info : Advanced Sub Station Alpha
Compression mode : Lossless
Language : English
Default : No
Forced : No

Discussion

Comments 0

Post Your Comment

Files in this torrent

FILENAMESIZE
Sherlock.S01E01.A.Study.in.Pink.1080p.BluRay.DD.5.1.x265-LGC.mkv1.3 GB
Sherlock.S01E02.The.Blind.Banker.1080p.BluRay.DD.5.1.x265-LGC.mkv1.3 GB
Sherlock.S01E03.The.Great.Game.1080p.BluRay.DD.5.1.x265-LGC.mkv1.3 GB

Alternative Torrents for 'Sherlock Season BluRay DD HEVC'.

There are no alternative torrents found.