The 100 S03E04 Watch The Thrones 1080p WEB-DL DD 5.1 H265-LGC

Torrent Details

The 100 S03E04 Watch the Thrones 1080p WEB-DL DD 5.1 H265<span style=color:#fc9c6d>-LGC</span>

NAME
The 100 S03E04 Watch the Thrones 1080p WEB-DL DD 5.1 H265-LGC.torrent
CATEGORY
Television
INFOHASH
3d35e8809f6c891381fc52a8734c4c05942b3b91
SIZE
619 MB in 1 file
ADDED
Uploaded on 23-04-2016 by our crawler pet called "Spidey".
SWARM
0 seeders & 0 peers
RATING
No votes yet.

Please login to vote for this torrent.


Description

http://i.jeded.com/i/the-100-the-hundred-third-season-2014.40624.jpg
WARNING: High Efficiency Video Coding HEVC x265
This is re-encoded with the new generation video codec HEVC. It will probably not work on your TV or BD player unless it's a recent one that supports x265 ! (or unless you plug a computer to your TV via HDMI)
Recommended:Windows OS MPC-HC Player with K-Lite self updating codec pack and MediaInfo combination for High Efficiency Video Coding HEVC x265 PLAYBACK NINITE
NINITE
Thread: LGC Releases
LGC Releases
Thread: LGC Releases
High Efficiency Video Coding HEVC x265
The.100.S03E04.Watch.the.Thrones.1080p.WEB-DL.DD5.1.H265-LGC.mkv
Format : Matroska
Format version : Version 2
File size : 619 MiB
Duration : 42mn 28s
Overall bit rate : 2 037 Kbps
Movie name : The.100.S03E04.1080p.WEB-DL.DD5.1.H264-RARBG
Encoded date : UTC
Writing application : HandBrake 0.10.2 2015060900
Writing library : Lavf55.12.0

Video
ID : 1
Format : HEVC
Format/Info : High Efficiency Video Coding
Format profile : [email protected]@Main
Codec ID : V_MPEGH/ISO/HEVC
Duration : 42mn 28s
Bit rate : 1 612 Kbps
Width : 1 916 pixels
Height : 1 076 pixels
Display aspect ratio : 16:9
Frame rate mode : Constant
Frame rate : 23.976 fps
Color space : YUV
Chroma subsampling : 4:2:0
Bit depth : 8 bits
Bits/(Pixel*Frame) : 0.033
Stream size : 490 MiB (79%)
Writing library : x265 1.5:[Windows][GCC 4.9.0][64 bit]
Encoding settings : wpp / ctu=32 / tu-intra-depth=1 / tu-inter-depth=1 / me=0 / subme=0 / merange=25 / no-rect / no-amp / max-merge=2 / temporal-mvp / early-skip / no-fast-cbf / rdpenalty=0 / no-tskip / no-tskip-fast / strong-intra-smoothing / no-lossless / no-cu-lossless / no-constrained-intra / fast-intra / open-gop / interlace=0 / keyint=240 / min-keyint=24 / scenecut=0 / rc-lookahead=10 / bframes=4 / bframe-bias=0 / b-adapt=0 / ref=1 / no-weightp / no-weightb / aq-mode=0 / aq-strength=0.00 / cbqpoffs=0 / crqpoffs=0 / rd=2 / psy-rd=0.30 / psy-rdoq=0.00 / no-signhide / lft / no-sao / no-sao-non-deblock / b-pyramid / no-cutree / rc=2 / pass / bitrate=1650 / qcomp=0.60 / qpmin=0 / qpmax=51 / qpstep=4 / cplxblur=20.0 / qblur=0.5 / ipratio=1.40 / pbratio=1.30
Default : Yes
Forced : No
Color range : Limited
Color primaries : BT.709
Transfer characteristics : BT.709
Matrix coefficients : BT.709

Audio
ID : 2
Format : AC-3
Format/Info : Audio Coding 3
Mode extension : CM (complete main)
Format settings, Endianness : Big
Codec ID : A_AC3
Duration : 42mn 28s
Bit rate mode : Constant
Bit rate : 384 Kbps
Channel(s) : 6 channels
Channel positions : Front: L C R, Side: L R, LFE
Sampling rate : 48.0 KHz
Compression mode : Lossy
Stream size : 117 MiB (19%)
Title : Surround
Language : English
Default : Yes
Forced : No

Text
ID : 3
Format : ASS
Codec ID : S_TEXT/ASS
Codec ID/Info : Advanced Sub Station Alpha
Compression mode : Lossless
Default : Yes
Forced : No
SOURCE: Torrent: The 100 S03E04 1080p WEB-DL DD5 1 H264-RARBG The 100 S03E04 1080p WEB-DL DD5 1 H264-RARBG
Feb 13, 2016 in TV.  Verified.  1.63 GB 207C154280571C985B50FE3F0859ED2E2F2FB1D1 15  3 9/10   9/10   10/10

Discussion

Comments 0

Post Your Comment

Files in this torrent

FILENAMESIZE
The.100.S03E04.Watch.the.Thrones.1080p.WEB-DL.DD5.1.H265-LGC.mkv618.9 MB

Alternative Torrents for 'Watch Thrones DD'.

There are no alternative torrents found.