Shameless US S06E12 Familia Supra Gallegorious Omnia! 1080p HDTV HEVC X265-LGC

Torrent Details


Shameless US S06E12 Familia Supra Gallegorious Omnia! 1080p HDTV HEVC x265<span style=color:#fc9c6d>-LGC</span>

NAME
Shameless US S06E12 Familia Supra Gallegorious Omnia! 1080p HDTV HEVC x265-LGC.torrent
CATEGORY
Television
INFOHASH
46fb7c45810cf43b353b44ec531f32a0e9eda9d1
SIZE
926 MB in 1 file
ADDED
Uploaded on 23-04-2016 by our crawler pet called "Spidey".
SWARM
0 seeders & 0 peers
RATING
No votes yet.

Please login to vote for this torrent.


Description

WARNING: High Efficiency Video Coding HEVC x265
This is re-encoded with the new generation video codec HEVC. It will probably not work on your TV or BD player unless it's a recent one that supports x265 ! (or unless you plug a computer to your TV via HDMI)
Recommended Windows OS: MPC-HC Player with K-Lite self updating codec pack and MediaInfo combination for High Efficiency Video Coding HEVC x265 PLAYBACK

NINITE K-Lite Codecs

Thread: LGC Releases
LGC Releases
Thread: LGC Releases
High Efficiency Video Coding HEVC x265
Shameless.US.S06E12.Familia.Supra.Gallegorious.Omnia!.1080p.HDTV.HEVC.x265-LGC.mkv
Format : Matroska
Format version : Version 2
File size : 926 MiB
Duration : 56mn 24s
Overall bit rate : 2 295 Kbps
Encoded date : UTC 2016-04-04T06:28:29Z
Writing application : HandBrake 0.10.5 2016021100
Writing library : Lavf55.12.0

Video
ID : 1
Format : HEVC
Format/Info : High Efficiency Video Coding
Format profile : [email protected]@Main
Codec ID : V_MPEGH/ISO/HEVC
Duration : 56mn 24s
Bit rate : 1 609 Kbps
Width : 1 920 pixels
Height : 1 080 pixels
Display aspect ratio : 16:9
Frame rate mode : Constant
Frame rate : 23.976 fps
Color space : YUV
Chroma subsampling : 4:2:0
Bit depth : 8 bits
Bits/(Pixel*Frame) : 0.032
Stream size : 649 MiB (70%)
Writing library : x265 1.9:[Windows][GCC 4.9.0][64 bit] 8bit
Encoding settings : wpp / ctu=32 / min-cu-size=16 / max-tu-size=32 / tu-intra-depth=1 / tu-inter-depth=1 / me=0 / subme=0 / merange=57 / no-rect / no-amp / max-merge=2 / temporal-mvp / early-skip / rdpenalty=0 / no-tskip / no-tskip-fast / strong-intra-smoothing / no-lossless / no-cu-lossless / no-constrained-intra / fast-intra / open-gop / no-temporal-layers / interlace=0 / keyint=240 / min-keyint=24 / scenecut=0 / rc-lookahead=5 / lookahead-slices=6 / bframes=3 / bframe-bias=0 / b-adapt=0 / ref=1 / limit-refs=0 / no-limit-modes / no-weightp / no-weightb / aq-mode=1 / qg-size=32 / aq-strength=0.00 / cbqpoffs=0 / crqpoffs=0 / rd=2 / psy-rd=2.00 / rdoq-level=0 / psy-rdoq=0.00 / no-signhide / deblock / no-sao / no-sao-non-deblock / b-pyramid / cutree / no-intra-refresh / rc=2 / pass / bitrate=1650 / qcomp=0.60 / qpmin=0 / qpmax=51 / qpstep=4 / cplxblur=20.0 / qblur=0.5 / ipratio=1.40 / pbratio=1.30
Default : Yes
Forced : No
Color range : Limited
Color primaries : BT.709
Transfer characteristics : BT.709
Matrix coefficients : BT.709

Audio
ID : 2
Format : AC-3
Format/Info : Audio Coding 3
Mode extension : CM (complete main)
Format settings, Endianness : Big
Codec ID : A_AC3
Duration : 56mn 24s
Bit rate mode : Constant
Bit rate : 640 Kbps
Channel(s) : 6 channels
Channel positions : Front: L C R, Side: L R, LFE
Sampling rate : 48.0 KHz
Compression mode : Lossy
Stream size : 258 MiB (28%)
Title : Surround
Default : Yes
Forced : No

Text
ID : 3
Format : ASS
Codec ID : S_TEXT/ASS
Codec ID/Info : Advanced Sub Station Alpha
Compression mode : Lossless
Language : English
Default : No
Forced : No
SOURCE: Torrent: Shameless US S06E12 1080p HDTV X264-DIMENSION[rartv] Shameless US S06E12 1080p HDTV X264-DIMENSION[rartv]
Apr 4, 2016 in TV.  Verified.  3.29 GB 86D6D09EDA30C10C547C5687A7F48DFE644B4DCE 32  10 9/10   9/10   10/10

Discussion

Comments 0

Post Your Comment

Files in this torrent

FILENAMESIZE
Shameless.US.S06E12.Familia.Supra.Gallegorious.Omnia!.1080p.HDTV.HEVC.x265-LGC.mkv925.7 MB

Alternative Torrents for 'Shameless US Familia Supra Gallegorious Omnia HEVC'.

TORRENT NAMEADDEDSIZESEEDSPEERSHEALTH
4/23/2016926 MB00
4/6/2016306 MB00