Save The Last Dance 2001 BRRip XviD MP3-RARBG

Torrent Details


Save The Last Dance 2001 BRRip XviD MP3-RARBG

NAME
Save The Last Dance 2001 BRRip XviD MP3-RARBG.torrent
CATEGORY
Movies
INFOHASH
10371aa8d9526d2d5c346ab8a56b98ab5c234805
SIZE
1.4 GB in 4 files
ADDED
Uploaded on 25-04-2016 by our crawler pet called "Spidey".
SWARM
0 seeders & 0 peers
RATING
No votes yet.

Please login to vote for this torrent.


Description

https://rarbg.to
Save.The.Last.Dance.2001.BRRip.XviD.MP3-RARBG

Screens :










Mediainfo :

Video
ID : 0
Format : MPEG-4 Visual
Format profile : [email protected]
Format settings, BVOP : No
Format settings, QPel : No
Format settings, GMC : No warppoints
Format settings, Matrix : Default (H.263)
Codec ID : XVID
Codec ID/Hint : XviD
Duration : 1h 52mn
Bit rate : 1 599 Kbps
Width : 720 pixels
Height : 400 pixels
Display aspect ratio : 16:9
Frame rate : 23.976 fps
Color space : YUV
Chroma subsampling : 4:2:0
Bit depth : 8 bits
Scan type : Progressive
Compression mode : Lossy
Bits/(Pixel*Frame) : 0.232
Stream size : 1.26 GiB (89%)
Title : RARBG.COM - Save.The.Last.Dance.2001.BRRip.XviD.MP3-RARBG
Writing library : Lavc56.60.100

Audio
ID : 1
Format : MPEG Audio
Format version : Version 1
Format profile : Layer 3
Mode : Joint stereo
Codec ID : 55
Codec ID/Hint : MP3
Duration : 1h 52mn
Bit rate mode : Constant
Bit rate : 192 Kbps
Channel(s) : 2 channels
Sampling rate : 48.0 KHz
Compression mode : Lossy
Stream size : 155 MiB (11%)
Alignment : Aligned on interleaves
Interleave, duration : 24 ms (0.58 video frame)
Title : RARBG.COM - Save.The.Last.Dance.2001.BRRip.XviD.MP3-RARBG
Writing library : LAME3.99.5

Discussion

Comments 0

Post Your Comment

Files in this torrent

FILENAMESIZE
RARBG.COM.avi1.1 MB
RARBG.COM.txt34 B
Save.The.Last.Dance.2001.BRRip.XviD.MP3-RARBG.avi1.4 GB
Save.The.Last.Dance.2001.BRRip.XviD.MP3-RARBG.nfo3.1 KB

Alternative Torrents for 'Save Last Dance RARBG'.

TORRENT NAMEADDEDSIZESEEDSPEERSHEALTH
6/8/20201.8 GB00
6/8/20201.4 GB00
6/4/20201.7 GB00
2/14/20201.7 GB00
2/14/20203 GB00
12/28/20191.4 GB00
12/27/20192.2 GB00
4/29/20161.4 GB00
4/26/20162.2 GB00
4/25/20161.4 GB00