Interview With The Vampire 1994 720p BluRay H264 AAC-RARBG

Torrent Details


Interview With The Vampire 1994 720p BluRay H264 AAC-RARBG

NAME
Interview With The Vampire 1994 720p BluRay H264 AAC-RARBG.torrent
CATEGORY
Movies
INFOHASH
c4b856bda72ce4ae9acc3073549b0b8d8c59d748
SIZE
1.5 GB in 9 files
ADDED
Uploaded on 26-04-2016 by our crawler pet called "Spidey".
SWARM
0 seeders & 0 peers
RATING
No votes yet.

Please login to vote for this torrent.


Description

https://rarbg.to
Interview.With.The.Vampire.1994.720p.BluRay.H264.AAC-RARBG

Screens :










Mediainfo :

Video
ID : 1
Format : AVC
Format/Info : Advanced Video Codec
Format profile : [email protected]
Format settings, CABAC : Yes
Format settings, ReFrames : 4 frames
Codec ID : avc1
Codec ID/Info : Advanced Video Coding
Duration : 2h 2mn
Bit rate : 1 500 Kbps
Width : 1 280 pixels
Height : 722 pixels
Display aspect ratio : 16:9
Frame rate mode : Constant
Frame rate : 23.976 (23976/1000) fps
Color space : YUV
Chroma subsampling : 4:2:0
Bit depth : 8 bits
Scan type : Progressive
Bits/(Pixel*Frame) : 0.068
Stream size : 1.28 GiB (87%)
Writing library : x264 core 148 r2638M 7599210
Encoding settings : cabac=1 / ref=4 / deblock=1:-1:-1 / analyse=0x3:0x113 / me=umh / subme=9 / psy=1 / psy_rd=1.00:0.15 / mixed_ref=1 / me_range=24 / chroma_me=1 / trellis=2 / 8x8dct=1 / cqm=0 / deadzone=21,11 / fast_pskip=1 / chroma_qp_offset=-3 / threads=32 / lookahead_threads=4 / sliced_threads=0 / nr=0 / decimate=1 / interlaced=0 / bluray_compat=0 / constrained_intra=0 / bframes=3 / b_pyramid=2 / b_adapt=2 / b_bias=0 / direct=3 / weightb=1 / open_gop=0 / weightp=2 / keyint=250 / keyint_min=25 / scenecut=40 / intra_refresh=0 / rc_lookahead=50 / rc=2pass / mbtree=1 / bitrate=1500 / ratetol=1.0 / qcomp=0.60 / qpmin=0 / qpmax=69 / qpstep=4 / cplxblur=20.0 / qblur=0.5 / vbv_maxrate=31250 / vbv_bufsize=31250 / nal_hrd=none / filler=0 / ip_ratio=1.40 / aq=3:1.00
Encoded date : UTC 2016-04-26 23:15:17
Tagged date : UTC 2016-04-26 23:15:17

Audio
ID : 2
Format : AAC
Format/Info : Advanced Audio Codec
Format profile : LC
Codec ID : 40
Duration : 2h 2mn
Bit rate mode : Constant
Bit rate : 224 Kbps
Channel(s) : 2 channels
Channel(s)_Original : 6 channels
Channel positions : Front: L C R, Side: L R, LFE
Sampling rate : 48.0 KHz
Frame rate : 46.875 fps (1024 spf)
Compression mode : Lossy
Stream size : 196 MiB (13%)
Language : English
Default : Yes
Alternate group : 1
Encoded date : UTC 2016-04-26 23:15:17
Tagged date : UTC 2016-04-26 23:15:17

Discussion

Comments 0

Post Your Comment

Files in this torrent

FILENAMESIZE
Interview.With.The.Vampire.1994.720p.BluRay.H264.AAC-RARBG.mp41.5 GB
Interview.With.The.Vampire.1994.720p.BluRay.H264.AAC-RARBG.nfo4 KB
RARBG.COM.mp4992.9 KB
RARBG.COM.txt34 B
Subs/Dut.srt77.2 KB
Subs/Fin.srt69.7 KB
Subs/Por.srt74.1 KB
Subs/Spa.srt76.9 KB
Subs/Swe.srt74 KB

Alternative Torrents for 'Interview With Vampire BluRay AACRARBG'.

TORRENT NAMEADDEDSIZESEEDSPEERSHEALTH
8/2/2020920 MB89893
7/31/20201.9 GB822304
7/30/20201.8 GB68992
8/7/20201.1 GB687732
8/7/20202.3 GB623544
8/2/20203.8 GB529328
Yesterday926 MB524293
8/7/2020875 MB475389
7/9/20174.6 GB446166
Today806 MB389231
8/6/2020967 MB364212
8/1/20201 GB35257
Today1.6 GB331188
Yesterday3.1 GB33198
Yesterday1.8 GB331359