Capone 1975 BRRip XviD MP3-RARBG

Torrent Details


Capone 1975 BRRip XviD MP3-RARBG

NAME
Capone 1975 BRRip XviD MP3-RARBG.torrent
CATEGORY
Movies
INFOHASH
288cbb9096d7c4e55481ae558fe493807e30951b
SIZE
1.3 GB in 5 files
ADDED
Uploaded on 28-04-2016 by our crawler pet called "Spidey".
SWARM
0 seeders & 0 peers
RATING
No votes yet.

Please login to vote for this torrent.


Description

https://rarbg.to
Capone.1975.BRRip.XviD.MP3-RARBG

Screens :










Mediainfo :

Video
ID : 0
Format : MPEG-4 Visual
Format profile : [email protected]
Format settings, BVOP : No
Format settings, QPel : No
Format settings, GMC : No warppoints
Format settings, Matrix : Default (H.263)
Codec ID : XVID
Codec ID/Hint : XviD
Duration : 1h 41mn
Bit rate : 1 600 Kbps
Width : 720 pixels
Height : 390 pixels
Display aspect ratio : 1.85:1
Frame rate : 23.976 fps
Color space : YUV
Chroma subsampling : 4:2:0
Bit depth : 8 bits
Scan type : Progressive
Compression mode : Lossy
Bits/(Pixel*Frame) : 0.238
Stream size : 1.13 GiB (89%)
Title : RARBG.COM - Capone.1975.BRRip.XviD.MP3-RARBG
Writing library : Lavc56.60.100

Audio
ID : 1
Format : MPEG Audio
Format version : Version 1
Format profile : Layer 3
Codec ID : 55
Codec ID/Hint : MP3
Duration : 1h 41mn
Bit rate mode : Constant
Bit rate : 192 Kbps
Channel(s) : 1 channel
Sampling rate : 48.0 KHz
Compression mode : Lossy
Stream size : 139 MiB (11%)
Alignment : Aligned on interleaves
Interleave, duration : 24 ms (0.58 video frame)
Interleave, preload duration : 24 ms
Title : RARBG.COM - Capone.1975.BRRip.XviD.MP3-RARBG
Writing library : LAME3.99.5

Discussion

Comments 0

Post Your Comment

Files in this torrent

FILENAMESIZE
Capone.1975.BRRip.XviD.MP3-RARBG.avi1.3 GB
Capone.1975.BRRip.XviD.MP3-RARBG.nfo3.1 KB
RARBG.COM.avi1.1 MB
RARBG.COM.txt34 B
Subs/subs.srt86.4 KB

Alternative Torrents for 'Capone RARBG'.

TORRENT NAMEADDEDSIZESEEDSPEERSHEALTH
7/21/20203.6 GB73
7/21/20208.3 GB12
5/28/20202 GB00
5/28/20201.3 GB00
5/28/20201.6 GB00
5/12/20201.6 GB00
5/12/20202 GB00
3/12/2020639 MB00
3/12/2020659 MB00
7/18/20191.9 GB00
7/16/20191.2 GB00
4/29/20161.2 GB00
4/29/20161.9 GB00
4/28/20161.3 GB00
8/16/2014966 MB00