Hawaii Five-0 2010 S06E22 1080p HDTV X264-DIMENSION[rarbg]

Torrent Details

Hawaii Five-0 2010 S06E22 1080p HDTV X264<span style=color:#fc9c6d>-DIMENSION[rarbg]</span>

NAME
Hawaii Five-0 2010 S06E22 1080p HDTV X264-DIMENSION[rarbg].torrent
CATEGORY
Television
INFOHASH
ff46db6f21fd1f2d99f84014550a95da7f1f8465
SIZE
5.2 GB in 3 files
ADDED
Uploaded on 30-04-2016 by our crawler pet called "Spidey".
SWARM
0 seeders & 0 peers
RATING
No votes yet.

Please login to vote for this torrent.


Description

https://rarbg.to
Hawaii.Five-0.2010.S06E22.1080p.HDTV.X264-DIMENSION[rartv]

Screens :


Mediainfo :

Video
ID : 1
Format : AVC
Format/Info : Advanced Video Codec
Format profile : [email protected]
Format settings, CABAC : Yes
Format settings, ReFrames : 4 frames
Codec ID : V_MPEG4/ISO/AVC
Duration : 43mn 53s
Bit rate : 15.4 Mbps
Width : 1 920 pixels
Height : 1 080 pixels
Display aspect ratio : 16:9
Frame rate mode : Constant
Frame rate : 23.976 (24000/1001) fps
Color space : YUV
Chroma subsampling : 4:2:0
Bit depth : 8 bits
Scan type : Progressive
Bits/(Pixel*Frame) : 0.309
Stream size : 4.71 GiB (91%)
Writing library : x264 core 148 r2665 a01e339
Encoding settings : cabac=1 / ref=4 / deblock=1:-3:-3 / analyse=0x3:0x133 / me=umh / subme=11 / psy=1 / psy_rd=1.00:0.00 / mixed_ref=1 / me_range=32 / chroma_me=1 / trellis=2 / 8x8dct=1 / cqm=0 / deadzone=21,11 / fast_pskip=0 / chroma_qp_offset=-2 / threads=20 / lookahead_threads=2 / sliced_threads=0 / nr=0 / decimate=1 / interlaced=0 / bluray_compat=0 / constrained_intra=0 / bframes=5 / b_pyramid=2 / b_adapt=2 / b_bias=0 / direct=3 / weightb=1 / open_gop=0 / weightp=2 / keyint=250 / keyint_min=23 / scenecut=40 / intra_refresh=0 / rc_lookahead=60 / rc=crf / mbtree=1 / crf=17.0 / qcomp=0.60 / qpmin=0 / qpmax=69 / qpstep=4 / ip_ratio=1.40 / aq=1:1.00
Language : English
Default : Yes
Forced : No
Color range : Limited
Matrix coefficients : BT.709

Audio
ID : 2
Format : DTS
Format/Info : Digital Theater Systems
Mode : 16
Format settings, Endianness : Big
Codec ID : A_DTS
Duration : 43mn 53s
Bit rate mode : Constant
Bit rate : 1 510 Kbps
Channel(s) : 6 channels
Channel positions : Front: L C R, Side: L R, LFE
Sampling rate : 48.0 KHz
Frame rate : 93.750 fps (512 spf)
Bit depth : 24 bits
Compression mode : Lossy
Stream size : 474 MiB (9%)
Default : Yes
Forced : No

Discussion

Comments 0

Post Your Comment

Files in this torrent

FILENAMESIZE
Hawaii.Five-0.2010.S06E22.1080p.HDTV.X264-DIMENSION.mkv5.2 GB
hawaii.five-0.622.1080-dimension.nfo612 B
RARBG.com.txt34 B

Alternative Torrents for 'Hawaii Five'.

TORRENT NAMEADDEDSIZESEEDSPEERSHEALTH
11/10/2020359 MB233
11/8/2020344 MB233
11/10/2020307 MB223
11/8/2020318 MB221
9/30/2020301 MB221
11/10/2020307 MB202
11/10/2020307 MB200
11/9/2020336 MB203
11/8/2020307 MB202
10/14/2020363 MB202
11/8/2020364 MB192
11/10/2020364 MB182
11/10/2020305 MB172
12/7/202018.6 GB1615
12/7/202019.9 GB1414