Playing God 1997 720p BluRay H264 AAC-RARBG

Torrent Details


Playing God 1997 720p BluRay H264 AAC-RARBG

NAME
Playing God 1997 720p BluRay H264 AAC-RARBG.torrent
CATEGORY
Movies
INFOHASH
7a59fc49d43d9cbd0006a663313412a12a9d35aa
SIZE
1.1 GB in 5 files
ADDED
Uploaded on 01-05-2016 by our crawler pet called "Spidey".
SWARM
0 seeders & 0 peers
RATING
No votes yet.

Please login to vote for this torrent.


Description

https://rarbg.to
Playing.God.1997.720p.BluRay.H264.AAC-RARBG

Screens :










Mediainfo :

Video
ID : 1
Format : AVC
Format/Info : Advanced Video Codec
Format profile : [email protected]
Format settings, CABAC : Yes
Format settings, ReFrames : 4 frames
Codec ID : avc1
Codec ID/Info : Advanced Video Coding
Duration : 1h 34mn
Bit rate : 1 500 Kbps
Width : 1 280 pixels
Height : 720 pixels
Display aspect ratio : 16:9
Frame rate mode : Constant
Frame rate : 23.976 (23976/1000) fps
Color space : YUV
Chroma subsampling : 4:2:0
Bit depth : 8 bits
Scan type : Progressive
Bits/(Pixel*Frame) : 0.068
Stream size : 1 010 MiB (87%)
Writing library : x264 core 148 r2638M 7599210
Encoding settings : cabac=1 / ref=4 / deblock=1:-1:-1 / analyse=0x3:0x113 / me=umh / subme=9 / psy=1 / psy_rd=1.00:0.15 / mixed_ref=1 / me_range=24 / chroma_me=1 / trellis=2 / 8x8dct=1 / cqm=0 / deadzone=21,11 / fast_pskip=1 / chroma_qp_offset=-3 / threads=32 / lookahead_threads=4 / sliced_threads=0 / nr=0 / decimate=1 / interlaced=0 / bluray_compat=0 / constrained_intra=0 / bframes=3 / b_pyramid=2 / b_adapt=2 / b_bias=0 / direct=3 / weightb=1 / open_gop=0 / weightp=2 / keyint=250 / keyint_min=25 / scenecut=40 / intra_refresh=0 / rc_lookahead=50 / rc=2pass / mbtree=1 / bitrate=1500 / ratetol=1.0 / qcomp=0.60 / qpmin=0 / qpmax=69 / qpstep=4 / cplxblur=20.0 / qblur=0.5 / vbv_maxrate=31250 / vbv_bufsize=31250 / nal_hrd=none / filler=0 / ip_ratio=1.40 / aq=3:1.00
Encoded date : UTC 2016-05-01 13:45:42
Tagged date : UTC 2016-05-01 13:45:42

Audio
ID : 2
Format : AAC
Format/Info : Advanced Audio Codec
Format profile : LC
Codec ID : 40
Duration : 1h 34mn
Bit rate mode : Constant
Bit rate : 224 Kbps
Channel(s) : 2 channels
Channel positions : Front: L R
Sampling rate : 48.0 KHz
Frame rate : 46.875 fps (1024 spf)
Compression mode : Lossy
Stream size : 151 MiB (13%)
Language : English
Default : Yes
Alternate group : 1
Encoded date : UTC 2016-05-01 13:45:42
Tagged date : UTC 2016-05-01 13:45:42

Discussion

Comments 0

Post Your Comment

Files in this torrent

FILENAMESIZE
Playing.God.1997.720p.BluRay.H264.AAC-RARBG.mp41.1 GB
Playing.God.1997.720p.BluRay.H264.AAC-RARBG.nfo3.9 KB
RARBG.COM.mp4992.9 KB
RARBG.COM.txt34 B
Subs/subs.srt97.6 KB

Alternative Torrents for 'Playing God BluRay AACRARBG'.

TORRENT NAME ADDED SIZE SEEDS PEERS HEALTH
Yesterday 1.4 GB 2622 810
5/15/2020 1.1 GB 2613 485
5/15/2020 2.3 GB 2209 331
Yesterday 2.4 GB 1623 441
Yesterday 704 MB 1583 663
5/23/2020 898 MB 1383 266
5/20/2020 1.4 GB 1120 23
Yesterday 1.1 GB 825 267
5/14/2020 829 MB 802 112
Yesterday 2.1 GB 739 384
5/14/2020 2 GB 737 53
5/20/2020 705 MB 716 13
Yesterday 1 GB 549 302
5/14/2020 1.4 GB 508 5
Yesterday 7.5 GB 496 529