Containment S01E04 720p HDTV X264-DIMENSION[rarbg]

Torrent Details


Containment S01E04 720p HDTV X264<span style=color:#fc9c6d>-DIMENSION[rarbg]</span>

NAME
Containment S01E04 720p HDTV X264-DIMENSION[rarbg].torrent
CATEGORY
Television
INFOHASH
bc78d0604c124610772fa974a14faf77c66d5394
SIZE
795 MB in 3 files
ADDED
Uploaded on 10-05-2016 by our crawler pet called "Spidey".
SWARM
0 seeders & 0 peers
RATING
No votes yet.

Please login to vote for this torrent.


Description

https://rarbg.to
Containment.S01E04.720p.HDTV.X264-DIMENSION[rartv]

Screens :


Mediainfo :

Video
ID : 1
Format : AVC
Format/Info : Advanced Video Codec
Format profile : [email protected]
Format settings, CABAC : Yes
Format settings, ReFrames : 9 frames
Codec ID : V_MPEG4/ISO/AVC
Duration : 42mn 21s
Bit rate : 2 238 Kbps
Width : 1 280 pixels
Height : 720 pixels
Display aspect ratio : 16:9
Frame rate mode : Constant
Frame rate : 23.976 (24000/1001) fps
Color space : YUV
Chroma subsampling : 4:2:0
Bit depth : 8 bits
Scan type : Progressive
Bits/(Pixel*Frame) : 0.101
Stream size : 678 MiB (85%)
Writing library : x264 core 148 r2665 a01e339
Encoding settings : cabac=1 / ref=9 / deblock=1:-2:-2 / analyse=0x3:0x133 / me=umh / subme=10 / psy=1 / psy_rd=1.00:0.00 / mixed_ref=1 / me_range=32 / chroma_me=1 / trellis=2 / 8x8dct=1 / cqm=0 / deadzone=21,11 / fast_pskip=0 / chroma_qp_offset=-2 / threads=20 / lookahead_threads=2 / sliced_threads=0 / nr=0 / decimate=1 / interlaced=0 / bluray_compat=0 / constrained_intra=0 / bframes=5 / b_pyramid=2 / b_adapt=2 / b_bias=0 / direct=3 / weightb=1 / open_gop=0 / weightp=2 / keyint=250 / keyint_min=23 / scenecut=40 / intra_refresh=0 / rc_lookahead=60 / rc=crf / mbtree=1 / crf=18.0 / qcomp=0.60 / qpmin=0 / qpmax=69 / qpstep=4 / ip_ratio=1.40 / aq=1:1.00
Language : English
Default : Yes
Forced : No
Color range : Limited
Matrix coefficients : BT.709

Audio
ID : 2
Format : AC-3
Format/Info : Audio Coding 3
Mode extension : CM (complete main)
Format settings, Endianness : Big
Codec ID : A_AC3
Duration : 42mn 21s
Bit rate mode : Constant
Bit rate : 384 Kbps
Channel(s) : 6 channels
Channel positions : Front: L C R, Side: L R, LFE
Sampling rate : 48.0 KHz
Frame rate : 31.250 fps (1536 spf)
Compression mode : Lossy
Stream size : 116 MiB (15%)
Default : Yes
Forced : No

Discussion

Comments 0

Post Your Comment

Files in this torrent

FILENAMESIZE
containment.104.720p-dimension.nfo859 B
Containment.S01E04.720p.HDTV.X264-DIMENSION.mkv795 MB
RARBG.com.txt34 B

Alternative Torrents for 'Containment'.

TORRENT NAMEADDEDSIZESEEDSPEERSHEALTH
5/1/20211.4 GB112
5/3/20212.5 GB34
4/21/20211.4 GB00
4/13/20211.7 GB00
4/9/20211 GB00
3/25/20211 MB00
3/17/2021524 MB00
3/16/2021286 MB00
3/15/202115 MB00
3/9/20211.7 GB00
3/4/2021256 MB00
2/23/2021234 MB00
2/23/202146 MB00
2/3/20214 MB00
2/3/202177 MB00