Happy Together 1997 RESTORED 720p BluRay X264-CiNEPHiLiA[rarbg]

Torrent Details

Happy Together 1997 RESTORED 720p BluRay x264-CiNEPHiLiA[rarbg]

NAME
Happy Together 1997 RESTORED 720p BluRay x264-CiNEPHiLiA[rarbg].torrent
CATEGORY
Movies
INFOHASH
32839271af4081213eeaf00c6410f0a18e6818f4
SIZE
4.3 GB in 4 files
ADDED
Uploaded on 22-09-2021 by our crawler pet called "Spidey".
SWARM
0 seeders & 0 peers
RATING
No votes yet.

Please login to vote for this torrent.


Description

帖子完整标题:春光乍洩 Happy.Together.1997.RESTORED.720p.BluRay.x264-CiNEPHiLiA 4.32GB  黎耀辉(梁朝伟)与何宝荣(张国荣)是一对同性恋人,为了有新的开始,他们怀着美丽的梦想(去看南美洲大瀑布)离开香港来到阿根廷,却在布宜诺斯艾利斯迷了路。黎耀辉想安下心来过日子,无奈何宝荣于夜夜笙歌中放纵着自己的生命,以期找寻更多的刺激,只当黎耀辉是他受伤后的港湾,两人分歧 、争吵越来越多,心的距离越来越远。    黎耀辉明白过去的日子不可能再复返时,决定离开何宝荣,而正是在他离开后,绝望的意味(对黎耀辉的爱)才在何宝荣的脑海中完整地浮现。◎获奖情况  第50届戛纳电影节 ?(1997)  主竞赛单元金棕榈奖(提名) 王家卫  主竞赛单元最佳导演 王家卫    第34届台北金马影展 ?(1997)  金马奖最佳导演(提名) 王家卫  金马奖最佳男主角(提名) 张国荣  金马奖最佳摄影 杜可风  金马奖最佳美术设计(提名) 张叔平  金马奖最佳剪辑(提名) 张叔平?/?黄铭林  金马奖最佳音效(提名) 梁志达?/?杜笃之    第17届香港电影金像奖 ?(1998)  最佳电影(提名) 王家卫  最佳导演(提名) 王家卫  最佳男主角 梁朝伟  最佳男主角(提名) 张国荣  最佳男配角(提名) 张震  最佳摄影(提名) 杜可风  最佳剪接(提名) 张叔平?/?黄铭林  最佳美术指导(提名) 张叔平  最佳服装造型设计(提名) 张叔平Video ID : 1 Format : AVC Format/Info : Advanced Video Codec Format profile : [email protected] Format settings : CABAC / 8 Ref Frames Format settings, CABAC : Yes Format settings, Reference frames : 8 frames Codec ID : V_MPEG4/ISO/AVC Duration : 1 h 36 min Bit rate : 5 773 kb/s Width : 1 280 pixels Height : 692 pixels Display aspect ratio : 1.85:1 Frame rate mode : Constant Frame rate : 23.976 (24000/1001/189150) FPS Color space : YUV Chroma subsampling : 4:2:0 Bit depth : 8 bits Scan type : Progressive Bits/(Pixel*Frame) : 0.272 Stream size : 3.89 GiB (90%) Writing library : x264 core 164 r3065 ae03d92 Encoding settings : cabac=1 / ref=8 / deblock=1:-3:-3 / analyse=0x3:0x133 / me=umh / subme=9 / psy=1 / psy_rd=1.00:0.00 / mixed_ref=1 / me_range=24 / chroma_me=1 / trellis=2 / 8x8dct=1 / cqm=0 / deadzone=21,11 / fast_pskip=0 / chroma_qp_offset=-2 / threads=22 / lookahead_threads=2 / sliced_threads=0 / nr=0 / decimate=0 / interlaced=0 / bluray_compat=0 / constrained_intra=0 / bframes=5 / b_pyramid=2 / b_adapt=2 / b_bias=0 / direct=3 / weightb=1 / open_gop=0 / weightp=2 / keyint=250 / keyint_min=23 / scenecut=40 / intra_refresh=0 / rc_lookahead=60 / rc=crf / mbtree=0 / crf=18.5 / qcomp=0.60 / qpmin=0 / qpmax=69 / qpstep=4 / vbv_maxrate=62500 / vbv_bufsize=78125 / crf_max=0.0 / nal_hrd=none / filler=0 / ip_ratio=1.40 / pb_ratio=1.30 / aq=3:0.85 Default : Yes Forced : No Audio ID : 2 Format : AC-3 Format/Info : Audio Coding 3 Commercial name : Dolby Digital Codec ID : A_AC3 Duration : 1 h 36 min Bit rate mode : Constant Bit rate : 640 kb/s Channel(s) : 6 channels Channel layout : L R C LFE Ls Rs Sampling rate : 48.0 kHz Frame rate : 31.250 FPS (1536 SPF) Compression mode : Lossy Stream size : 441 MiB (10%) Language : Chinese Service kind : Complete Main Default : Yes Forced : No Text #1 ID : 3 Format : PGS Muxing mode : zlib Codec ID : S_HDMV/PGS Codec ID/Info : Picture based subtitle format used on BDs/HD-DVDs Duration : 1 h 34 min Bit rate : 22.6 kb/s Count of elements : 1324 Stream size : 15.2 MiB (0%) Language : English Default : No Forced : No Text #2 ID : 4 Format : UTF-8 Codec ID : S_TEXT/UTF8 Codec ID/Info : UTF-8 Plain Text Duration : 1 h 34 min Bit rate : 26 b/s Count of elements : 662 Stream size : 18.6 KiB (0%) Language : English Default : Yes Forced : Yes Menu 00:00:00.000 : :Chapter 01 00:07:52.764 : :Chapter 02 00:17:10.988 : :Chapter 03 00:20:06.372 : :Chapter 04 00:32:36.538 : :Chapter 05 00:39:33.663 : :Chapter 06 00:44:02.890 : :Chapter 07 00:49:11.448 : :Chapter 08 00:53:53.730 : :Chapter 09 00:57:08.425 : :Chapter 10 01:01:46.703 : :Chapter 11 01:07:49.691 : :Chapter 12 01:11:33.664 : :Chapter 13 01:14:41.102 : :Chapter 14 01:20:38.625 : :Chapter 15 01:28:42.150 : :Chapter 16 01:30:40.226 : :Chapter 17

Discussion

Comments 0

Post Your Comment

Files in this torrent

FILENAMESIZE
happy.together.1997.restored.720p.bluray.x264-cinephilia.mkv4.3 GB
happy.together.1997.restored.720p.bluray.x264-cinephilia.nfo339 B
RARBG.txt30 B
RARBG_DO_NOT_MIRROR.exe99 B

Alternative Torrents for 'Happy Together RESTORED BluRay CiNEPHiLiA'.

TORRENT NAMEADDEDSIZESEEDSPEERSHEALTH
9/22/20214.3 GB00
9/22/202114.5 GB00