Warning! Do NOT Download Without a VPN!
Your IP Address is .   Location is United States
Your Internet Provider and Government can track your download activities! Hide your IP ADDRESS with a VPN!
We strongly recommend using a VPN service to anonymize your torrent downloads. It's FREE!
START YOUR FREE TRIAL NOW!

How To Be Single 2016 720p BluRay H264 AAC-RARBG

Torrent Details

How to be Single 2016 720p BluRay H264 AAC-RARBG

NAME
How to be Single 2016 720p BluRay H264 AAC-RARBG.torrent
CATEGORY
Movies
INFOHASH
bc8eb134fb402b3096a9cac927c0e2988f6ed752
SIZE
1.3 GB in 6 files
ADDED
Uploaded on 11-05-2016 by our crawler pet called "Spidey".
SWARM
0 seeders & 0 peers
RATING
No votes yet.

Please login to vote for this torrent.


Description

https://rarbg.to
How.to.be.Single.2016.720p.BluRay.H264.AAC-RARBG

Screens :










Mediainfo :

Video
ID : 1
Format : AVC
Format/Info : Advanced Video Codec
Format profile : [email protected]
Format settings, CABAC : Yes
Format settings, ReFrames : 4 frames
Codec ID : avc1
Codec ID/Info : Advanced Video Coding
Duration : 1h 49mn
Bit rate : 1 500 Kbps
Width : 1 280 pixels
Height : 536 pixels
Display aspect ratio : 2.40:1
Frame rate mode : Constant
Frame rate : 23.976 (23976/1000) fps
Color space : YUV
Chroma subsampling : 4:2:0
Bit depth : 8 bits
Scan type : Progressive
Bits/(Pixel*Frame) : 0.091
Stream size : 1.15 GiB (87%)
Writing library : x264 core 148 r2597M e86f3a1
Encoding settings : cabac=1 / ref=4 / deblock=1:-1:-1 / analyse=0x3:0x113 / me=umh / subme=9 / psy=1 / psy_rd=1.00:0.15 / mixed_ref=1 / me_range=24 / chroma_me=1 / trellis=2 / 8x8dct=1 / cqm=0 / deadzone=21,11 / fast_pskip=1 / chroma_qp_offset=-3 / threads=32 / lookahead_threads=4 / sliced_threads=0 / nr=0 / decimate=1 / interlaced=0 / bluray_compat=0 / constrained_intra=0 / bframes=3 / b_pyramid=2 / b_adapt=2 / b_bias=0 / direct=3 / weightb=1 / open_gop=0 / weightp=2 / keyint=250 / keyint_min=25 / scenecut=40 / intra_refresh=0 / rc_lookahead=50 / rc=2pass / mbtree=1 / bitrate=1500 / ratetol=1.0 / qcomp=0.60 / qpmin=0 / qpmax=69 / qpstep=4 / cplxblur=20.0 / qblur=0.5 / vbv_maxrate=31250 / vbv_bufsize=31250 / nal_hrd=none / filler=0 / ip_ratio=1.40 / aq=3:1.00
Encoded date : UTC 2016-05-11 01:18:53
Tagged date : UTC 2016-05-11 01:18:53

Audio
ID : 2
Format : AAC
Format/Info : Advanced Audio Codec
Format profile : LC
Codec ID : 40
Duration : 1h 49mn
Bit rate mode : Constant
Bit rate : 224 Kbps
Channel(s) : 2 channels
Channel(s)_Original : 6 channels
Channel positions : Front: L C R, Side: L R, LFE
Sampling rate : 48.0 KHz
Frame rate : 46.875 fps (1024 spf)
Compression mode : Lossy
Stream size : 176 MiB (13%)
Language : English
Default : Yes
Alternate group : 1
Encoded date : UTC 2016-05-11 01:18:53
Tagged date : UTC 2016-05-11 01:18:53

Discussion

Comments 0

Post Your Comment

Files in this torrent

FILENAMESIZE
How.to.be.Single.2016.720p.BluRay.H264.AAC-RARBG.mp41.3 GB
How.to.be.Single.2016.720p.BluRay.H264.AAC-RARBG.nfo4 KB
RARBG.COM.mp4992.9 KB
RARBG.COM.txt34 B
Subs/How.to.be.Single.2016.720p.BluRay.H264.AAC-RARBG.idx92.8 KB
Subs/How.to.be.Single.2016.720p.BluRay.H264.AAC-RARBG.sub12.3 MB

Alternative Torrents for 'How to be Single BluRay AAC'.

TORRENT NAME ADDED SIZE SEEDS PEERS HEALTH
5/11/2016 824 MB 0 0
5/11/2016 1.6 GB 0 0
5/3/2018 1.7 GB 0 0
5/25/2018 2.1 GB 0 0