Containment S01E04 720p WEB-DL DD 5.1 H264-RARBG[rarbg]

Torrent Details


Containment S01E04 720p WEB-DL DD 5.1 H264-RARBG[rarbg]

NAME
Containment S01E04 720p WEB-DL DD 5.1 H264-RARBG[rarbg].torrent
CATEGORY
Television
INFOHASH
14b98723ed330f73f9bb1c31db6da2ebed74159b
SIZE
1.3 GB in 3 files
ADDED
Uploaded on 20-05-2016 by our crawler pet called "Spidey".
SWARM
0 seeders & 0 peers
RATING
No votes yet.

Please login to vote for this torrent.


Description

https://rarbg.to
Containment.S01E04.720p.WEB-DL.DD5.1.H264-RARBG

Screens :


Mediainfo :

Video
ID : 1
Format : AVC
Format/Info : Advanced Video Codec
Format profile : [email protected]
Format settings, CABAC : No
Format settings, ReFrames : 2 frames
Codec ID : V_MPEG4/ISO/AVC
Duration : 42mn 21s
Bit rate : 3 848 Kbps
Width : 1 280 pixels
Height : 718 pixels
Display aspect ratio : 16:9
Frame rate mode : Constant
Frame rate : 23.976 fps
Color space : YUV
Chroma subsampling : 4:2:0
Bit depth : 8 bits
Scan type : Progressive
Bits/(Pixel*Frame) : 0.175
Stream size : 1.14 GiB (89%)
Title : Containment.S01E04.720p.WEB-DL.DD5.1.H264-RARBG
Language : English
Default : Yes
Forced : No
Color range : Limited
Color primaries : BT.709
Transfer characteristics : BT.709
Matrix coefficients : BT.709

Audio
ID : 2
Format : AC-3
Format/Info : Audio Coding 3
Mode extension : CM (complete main)
Format settings, Endianness : Big
Codec ID : A_AC3
Duration : 42mn 21s
Bit rate mode : Constant
Bit rate : 384 Kbps
Channel(s) : 6 channels
Channel positions : Front: L C R, Side: L R, LFE
Sampling rate : 48.0 KHz
Frame rate : 31.250 fps (1536 spf)
Compression mode : Lossy
Stream size : 116 MiB (9%)
Title : Containment.S01E04.720p.WEB-DL.DD5.1.H264-RARBG
Language : English
Default : Yes
Forced : No

Text
ID : 3
Format : UTF-8
Codec ID : S_TEXT/UTF8
Codec ID/Info : UTF-8 Plain Text
Default : Yes
Forced : No

Discussion

Comments 0

Post Your Comment

Files in this torrent

FILENAMESIZE
Containment.S01E04.720p.WEB-DL.DD5.1.H264-RARBG.mkv1.3 GB
Containment.S01E04.720p.WEB-DL.DD5.1.H264-RARBG.srt62.5 KB
RARBG.com.txt34 B

Alternative Torrents for 'Containment DD H'.

There are no alternative torrents found.