Containment S01E04 WEB-DL X264-RARBG

Torrent Details


Containment S01E04 WEB-DL x264-RARBG

NAME
Containment S01E04 WEB-DL x264-RARBG.torrent
CATEGORY
Television
INFOHASH
9868cd2063b79f3f81321dc37f7aeaeffe57e75f
SIZE
281 MB in 5 files
ADDED
Uploaded on 20-05-2016 by our crawler pet called "Spidey".
SWARM
0 seeders & 0 peers
RATING
No votes yet.

Please login to vote for this torrent.


Description

https://rarbg.to
Containment.S01E04.WEB-DL.x264-RARBG

Screens :








Mediainfo :

Video
ID : 1
Format : AVC
Format/Info : Advanced Video Codec
Format profile : [email protected]
Format settings, CABAC : Yes
Format settings, ReFrames : 5 frames
Codec ID : avc1
Codec ID/Info : Advanced Video Coding
Duration : 42mn 21s
Bit rate : 791 Kbps
Width : 720 pixels
Height : 400 pixels
Display aspect ratio : 16:9
Original display aspect ratio : 16:9
Frame rate mode : Constant
Frame rate : 23.976 (23976/1000) fps
Color space : YUV
Chroma subsampling : 4:2:0
Bit depth : 8 bits
Scan type : Progressive
Bits/(Pixel*Frame) : 0.115
Stream size : 240 MiB (86%)
Title : RARBG.COM - Containment.S01E04.WEB-DL.x264-RARBG
Writing library : x264 core 148 r2597M e86f3a1
Encoding settings : cabac=1 / ref=5 / deblock=1:-1:-1 / analyse=0x3:0x113 / me=umh / subme=9 / psy=1 / psy_rd=1.00:0.15 / mixed_ref=1 / me_range=16 / chroma_me=1 / trellis=2 / 8x8dct=1 / cqm=0 / deadzone=21,11 / fast_pskip=1 / chroma_qp_offset=-3 / threads=12 / lookahead_threads=1 / sliced_threads=0 / nr=0 / decimate=1 / interlaced=0 / bluray_compat=0 / constrained_intra=0 / bframes=3 / b_pyramid=2 / b_adapt=2 / b_bias=0 / direct=3 / weightb=1 / open_gop=0 / weightp=2 / keyint=250 / keyint_min=23 / scenecut=40 / intra_refresh=0 / rc_lookahead=50 / rc=crf / mbtree=1 / crf=19.0 / qcomp=0.60 / qpmin=0 / qpmax=69 / qpstep=4 / ip_ratio=1.40 / aq=1:1.00
Language : English
Encoded date : UTC 2016-05-20 12:58:53
Tagged date : UTC 2016-05-20 12:58:53

Audio
ID : 2
Format : AAC
Format/Info : Advanced Audio Codec
Format profile : LC
Codec ID : 40
Duration : 42mn 21s
Duration_LastFrame : -11ms
Bit rate mode : Constant
Bit rate : 128 Kbps
Channel(s) : 2 channels
Channel positions : Front: L R
Sampling rate : 48.0 KHz
Frame rate : 46.875 fps (1024 spf)
Compression mode : Lossy
Stream size : 38.8 MiB (14%)
Title : RARBG.COM - Containment.S01E04.WEB-DL.x264-RARBG
Language : English
Default : Yes
Alternate group : 1
Encoded date : UTC 2016-05-20 12:58:53
Tagged date : UTC 2016-05-20 12:58:53

Discussion

Comments 0

Post Your Comment

Files in this torrent

FILENAMESIZE
Containment.S01E04.WEB-DL.x264-RARBG.mp4280 MB
Containment.S01E04.WEB-DL.x264-RARBG.nfo4 KB
RARBG.COM.mp4992.9 KB
RARBG.COM.txt34 B
Subs/Und.srt58.3 KB

Alternative Torrents for 'Containment'.

TORRENT NAMEADDEDSIZESEEDSPEERSHEALTH
5/1/20211.4 GB112
5/3/20212.5 GB34
4/21/20211.4 GB00
4/13/20211.7 GB00
4/9/20211 GB00
3/25/20211 MB00
3/17/2021524 MB00
3/16/2021286 MB00
3/15/202115 MB00
3/9/20211.7 GB00
3/4/2021256 MB00
2/23/2021234 MB00
2/23/202146 MB00
2/3/20214 MB00
2/3/202177 MB00