Containment S01E04 - With Silence And Tears [720p WEB-DL H 264 AC3] [Lektor PL]

Torrent Details

Containment S01E04 - With Silence and Tears [720p WEB-DL H 264 AC3] [Lektor PL]Containment S01E04 - With Silence and Tears [720p WEB-DL H 264 AC3] [Lektor PL]

NAME
Containment S01E04 - With Silence and Tears [720p WEB-DL H 264 AC3] [Lektor PL].torrent
CATEGORY
Television
INFOHASH
0b3aa63e5ed1a52ffade702a8703808eab7e0a80
SIZE
1.2 GB in 1 file
ADDED
Uploaded on 21-05-2016 by our crawler pet called "Spidey".
SWARM
0 seeders & 0 peers
RATING
No votes yet.

Please login to vote for this torrent.


Description

Audio : POLISH VOICE OVER

Containment S01E04 - Lektor PL

produkcja: USA
gatunek: Dramat
reżyseria: Charles Beeson, Chris Grismer, David Nutter
scenariusz: Julie Plac, Marguerite MacIntyre
muzyka: Mike Suby
zdjęcia: William Wages, John Smith
czas trwania: ok. 42 min.

Opis:

Fabuła serialu dzieje się w Atlancie, gdzie wybucha groźna epidemia. Całe miasto zostaje objęte kwarantanną, a władze federalne szukają szczepionki. Serial skupia się na Alexie Carnahan, oficerze policji, który dowiaduje się, że jego dziewczyna i najlepszy przyjaciel objęci są kwarantanną. Stara się im pomóc.

Obsada:

David Gyasi - Alex Carnahan
Chris Wood - Jake Riley
Kristen Gutoskie - Katie Frank
Claudia Black - Sabine Lommers
George Young - Victor Cannerts
Hanna Mangan Lawrence - Teresa Keaton
Trevor St. John - Leo Greene
Christina Marie Moses - Jana Mayfield
Zachary Unger - Quentin Frank
Nadine Lewington - Suzy

Dane naprawcze:

Format : Matroska
Format version : Version 4 / Version 2
File size : 1.23 GiB
Duration : 42mn 21s
Overall bit rate : 4 158 Kbps

Video
ID : 1
Format : AVC
Format/Info : Advanced Video Codec
Format profile : [email protected]
Format settings, CABAC : No
Format settings, ReFrames : 2 frames
Codec ID : V_MPEG4/ISO/AVC
Duration : 42mn 21s
Bit rate : 3 851 Kbps
Width : 1 280 pixels
Height : 718 pixels
Display aspect ratio : 16:9
Frame rate mode : Constant
Frame rate : 23.976 fps
Color space : YUV
Chroma subsampling : 4:2:0
Bit depth : 8 bits
Scan type : Progressive
Bits/(Pixel*Frame) : 0.175
Stream size : 1.14 GiB (93%)
Color primaries : BT.709
Transfer characteristics : BT.709
Matrix coefficients : BT.709

Audio
ID : 2
Format : AC-3
Format/Info : Audio Coding 3
Mode extension : CM (complete main)
Format settings, Endianness : Big
Codec ID : A_AC3
Duration : 42mn 21s
Bit rate mode : Constant
Bit rate : 224 Kbps
Channel(s) : 2 channels
Channel positions : Front: L R
Sampling rate : 48.0 KHz
Bit depth : 16 bits
Compression mode : Lossy
Stream size : 67.9 MiB (5%)
Language : Polish

Containment S01E01 - Pilot [720p.WEB-DL.H.264.AC3] [Lektor PL]
http://torrenty.org/torrent/1313393
Containment S01E02 - I to Die, You to Live [720p.WEB-DL.H.264.AC3] [Lektor PL]
http://torrenty.org/torrent/1318748
Containment S01E03 - Be Angry at the Sun [720p.WEB-DL.H.264.AC3] [Lektor PL]
http://torrenty.org/torrent/1322029

http://i.torrenty.org/timages/1326248.jpg

Discussion

Comments 0

Post Your Comment

Files in this torrent

FILENAMESIZE
Containment S01E04 - With Silence and Tears [720p.WEB-DL.H.264.AC3] [Lektor PL].mkv1.2 GB

Alternative Torrents for 'Containment With Silence and Tears Lektor PL'.

TORRENT NAMEADDEDSIZESEEDSPEERSHEALTH
5/21/20161.2 GB00