Silicon Valley S03E05 720p HDTV X264-AVS[rarbg]

Torrent Details


Silicon Valley S03E05 720p HDTV x264<span style=color:#fc9c6d>-AVS[rarbg]</span>

NAME
Silicon Valley S03E05 720p HDTV x264-AVS[rarbg].torrent
CATEGORY
Television
INFOHASH
8d9dea418eff7db0264903be3d947608739886f6
SIZE
617 MB in 3 files
ADDED
Uploaded on 23-05-2016 by our crawler pet called "Spidey".
SWARM
0 seeders & 0 peers
RATING
No votes yet.

Please login to vote for this torrent.


Description

https://rarbg.to
Silicon.Valley.S03E05.720p.HDTV.x264-AVS[rartv]

Screens :


Mediainfo :

Video
ID : 1
Format : AVC
Format/Info : Advanced Video Codec
Format profile : [email protected]
Format settings, CABAC : Yes
Format settings, ReFrames : 5 frames
Codec ID : V_MPEG4/ISO/AVC
Duration : 28mn 20s
Bit rate : 2 599 Kbps
Width : 1 280 pixels
Height : 718 pixels
Display aspect ratio : 16:9
Frame rate mode : Constant
Frame rate : 23.976 (24000/1001) fps
Color space : YUV
Chroma subsampling : 4:2:0
Bit depth : 8 bits
Scan type : Progressive
Bits/(Pixel*Frame) : 0.118
Stream size : 527 MiB (85%)
Writing library : x264 core 148 r2692 64f4e24
Encoding settings : cabac=1 / ref=5 / deblock=1:0:0 / analyse=0x3:0x113 / me=umh / subme=8 / psy=1 / psy_rd=1.00:0.00 / mixed_ref=1 / me_range=16 / chroma_me=1 / trellis=1 / 8x8dct=1 / cqm=0 / deadzone=21,11 / fast_pskip=1 / chroma_qp_offset=-2 / threads=22 / lookahead_threads=3 / sliced_threads=0 / nr=0 / decimate=1 / interlaced=0 / bluray_compat=0 / constrained_intra=0 / bframes=3 / b_pyramid=2 / b_adapt=2 / b_bias=0 / direct=3 / weightb=1 / open_gop=0 / weightp=2 / keyint=250 / keyint_min=23 / scenecut=40 / intra_refresh=0 / rc_lookahead=50 / rc=crf / mbtree=1 / crf=18.0 / qcomp=0.60 / qpmin=0 / qpmax=69 / qpstep=4 / ip_ratio=1.40 / aq=1:1.00
Default : Yes
Forced : No
Color range : Limited
Matrix coefficients : BT.709

Audio
ID : 2
Format : AC-3
Format/Info : Audio Coding 3
Mode extension : CM (complete main)
Format settings, Endianness : Big
Codec ID : A_AC3
Duration : 28mn 20s
Bit rate mode : Constant
Bit rate : 384 Kbps
Channel(s) : 2 channels
Channel positions : Front: L R
Sampling rate : 48.0 KHz
Frame rate : 31.250 fps (1536 spf)
Compression mode : Lossy
Stream size : 77.9 MiB (13%)
Default : Yes
Forced : No

Discussion

Comments 0

Post Your Comment

Files in this torrent

FILENAMESIZE
RARBG.com.txt34 B
Silicon.Valley.S03E05.720p.HDTV.x264-AVS.mkv617.1 MB
silicon.valley.s03e05.720p.hdtv.x264-avs.nfo62 B

Alternative Torrents for 'Silicon Valley'.

TORRENT NAMEADDEDSIZESEEDSPEERSHEALTH
2/26/20211016 MB10
2/26/20216.7 GB12
2/2/20216.8 GB00
12/27/20206 MB00
12/26/20205.1 GB00
12/19/20205.5 GB00
12/6/20201.4 GB00
12/1/20204 MB00
11/8/2020232 MB00
10/26/20201.7 GB00
10/15/2020548 kB00
8/18/2020832 MB00
8/3/20202.6 GB00
7/19/20201012 MB00
7/13/20201.9 GB00