Silicon Valley S03E05 1080p HDTV X264-KNiFESHARP[rarbg]

Torrent Details


Silicon Valley S03E05 1080p HDTV x264-KNiFESHARP[rarbg]

NAME
Silicon Valley S03E05 1080p HDTV x264-KNiFESHARP[rarbg].torrent
CATEGORY
Television
INFOHASH
aa1582b61016418abd3413484719fc6716bd1e1f
SIZE
1.4 GB in 3 files
ADDED
Uploaded on 23-05-2016 by our crawler pet called "Spidey".
SWARM
0 seeders & 0 peers
RATING
No votes yet.

Please login to vote for this torrent.


Description

https://rarbg.to
Silicon.Valley.S03E05.1080p.HDTV.x264-KNiFESHARP[rartv]

Screens :


Mediainfo :

Video
ID : 1
Format : AVC
Format/Info : Advanced Video Codec
Format profile : [email protected]
Format settings, CABAC : Yes
Format settings, ReFrames : 4 frames
Codec ID : V_MPEG4/ISO/AVC
Duration : 27mn 9s
Bit rate : 6 840 Kbps
Width : 1 920 pixels
Height : 1 080 pixels
Display aspect ratio : 16:9
Frame rate mode : Constant
Frame rate : 25.000 fps
Color space : YUV
Chroma subsampling : 4:2:0
Bit depth : 8 bits
Scan type : Progressive
Bits/(Pixel*Frame) : 0.132
Stream size : 1.30 GiB (93%)
Writing library : x264 core 148 r2694 3b70645
Encoding settings : cabac=1 / ref=4 / deblock=1:-3:-3 / analyse=0x3:0x133 / me=umh / subme=11 / psy=1 / psy_rd=1.00:0.00 / mixed_ref=1 / me_range=32 / chroma_me=1 / trellis=2 / 8x8dct=1 / cqm=0 / deadzone=21,11 / fast_pskip=0 / chroma_qp_offset=-2 / threads=18 / lookahead_threads=2 / sliced_threads=0 / nr=0 / decimate=1 / interlaced=0 / bluray_compat=0 / constrained_intra=0 / bframes=5 / b_pyramid=2 / b_adapt=2 / b_bias=0 / direct=3 / weightb=1 / open_gop=0 / weightp=2 / keyint=250 / keyint_min=25 / scenecut=40 / intra_refresh=0 / rc_lookahead=60 / rc=crf / mbtree=1 / crf=17.0 / qcomp=0.60 / qpmin=0 / qpmax=69 / qpstep=4 / ip_ratio=1.40 / aq=1:1.00
Default : Yes
Forced : No
Color range : Limited
Matrix coefficients : BT.709

Audio
ID : 2
Format : AC-3
Format/Info : Audio Coding 3
Mode extension : CM (complete main)
Format settings, Endianness : Big
Codec ID : A_AC3
Duration : 27mn 9s
Bit rate mode : Constant
Bit rate : 384 Kbps
Channel(s) : 6 channels
Channel positions : Front: L C R, Side: L R, LFE
Sampling rate : 48.0 KHz
Frame rate : 31.250 fps (1536 spf)
Compression mode : Lossy
Stream size : 74.6 MiB (5%)
Language : English
Default : Yes
Forced : No

Discussion

Comments 0

Post Your Comment

Files in this torrent

FILENAMESIZE
RARBG.com.txt34 B
Silicon.Valley.S03E05.1080p.HDTV.x264-KNiFESHARP.mkv1.4 GB
silicon.valley.s03e05.1080p.hdtv.x264-knifesharp.nfo11.1 KB

Alternative Torrents for 'Silicon Valley KNiFESHARP'.

TORRENT NAMEADDEDSIZESEEDSPEERSHEALTH
7/6/20161.5 GB00
7/6/20161.5 GB00
6/21/20161.6 GB00
6/15/20161.5 GB00
6/11/20161.5 GB00
6/11/20161.4 GB00
5/23/20161.4 GB00
5/16/20161.4 GB00