Dazed And Confused 1993 REMASTERED 720p BluRay H264 AAC-RARBG

Torrent Details


Dazed and Confused 1993 REMASTERED 720p BluRay H264 AAC-RARBG

NAME
Dazed and Confused 1993 REMASTERED 720p BluRay H264 AAC-RARBG.torrent
CATEGORY
Movies
INFOHASH
57ea43630e54976b75c2db2d8430adfc932c1d38
SIZE
1.2 GB in 8 files
ADDED
Uploaded on 27-05-2016 by our crawler pet called "Spidey".
SWARM
0 seeders & 0 peers
RATING
No votes yet.

Please login to vote for this torrent.


Description

https://rarbg.to
Dazed.and.Confused.1993.REMASTERED.720p.BluRay.H264.AAC-RARBG

Screens :










Mediainfo :

Video
ID : 1
Format : AVC
Format/Info : Advanced Video Codec
Format profile : [email protected]
Format settings, CABAC : Yes
Format settings, ReFrames : 4 frames
Codec ID : avc1
Codec ID/Info : Advanced Video Coding
Duration : 1h 42mn
Bit rate : 1 500 Kbps
Width : 1 280 pixels
Height : 696 pixels
Display aspect ratio : 1.85:1
Frame rate mode : Constant
Frame rate : 23.976 (23976/1000) fps
Color space : YUV
Chroma subsampling : 4:2:0
Bit depth : 8 bits
Scan type : Progressive
Bits/(Pixel*Frame) : 0.070
Stream size : 1.07 GiB (87%)
Writing library : x264 core 148 r2597M e86f3a1
Encoding settings : cabac=1 / ref=4 / deblock=1:-1:-1 / analyse=0x3:0x113 / me=umh / subme=9 / psy=1 / psy_rd=1.00:0.15 / mixed_ref=1 / me_range=24 / chroma_me=1 / trellis=2 / 8x8dct=1 / cqm=0 / deadzone=21,11 / fast_pskip=1 / chroma_qp_offset=-3 / threads=32 / lookahead_threads=4 / sliced_threads=0 / nr=0 / decimate=1 / interlaced=0 / bluray_compat=0 / constrained_intra=0 / bframes=3 / b_pyramid=2 / b_adapt=2 / b_bias=0 / direct=3 / weightb=1 / open_gop=0 / weightp=2 / keyint=250 / keyint_min=25 / scenecut=40 / intra_refresh=0 / rc_lookahead=50 / rc=2pass / mbtree=1 / bitrate=1500 / ratetol=1.0 / qcomp=0.60 / qpmin=0 / qpmax=69 / qpstep=4 / cplxblur=20.0 / qblur=0.5 / vbv_maxrate=31250 / vbv_bufsize=31250 / nal_hrd=none / filler=0 / ip_ratio=1.40 / aq=3:1.00
Encoded date : UTC 2016-05-27 16:53:20
Tagged date : UTC 2016-05-27 16:53:20

Audio
ID : 2
Format : AAC
Format/Info : Advanced Audio Codec
Format profile : LC
Codec ID : 40
Duration : 1h 42mn
Bit rate mode : Constant
Bit rate : 224 Kbps
Channel(s) : 2 channels
Channel(s)_Original : 6 channels
Channel positions : Front: L C R, Side: L R, LFE
Sampling rate : 48.0 KHz
Frame rate : 46.875 fps (1024 spf)
Compression mode : Lossy
Stream size : 164 MiB (13%)
Language : English
Default : Yes
Alternate group : 1
Encoded date : UTC 2016-05-27 16:53:20
Tagged date : UTC 2016-05-27 16:53:20

Discussion

Comments 0

Post Your Comment

Files in this torrent

FILENAMESIZE
Dazed.and.Confused.1993.REMASTERED.720p.BluRay.H264.AAC-RARBG.mp41.2 GB
Dazed.and.Confused.1993.REMASTERED.720p.BluRay.H264.AAC-RARBG.nfo4 KB
RARBG.COM.mp4992.9 KB
RARBG.COM.txt34 B
Subs/Dazed.and.Confused.1993.REMASTERED.720p.BluRay.H264.AAC-RARBG.idx81.5 KB
Subs/Dazed.and.Confused.1993.REMASTERED.720p.BluRay.H264.AAC-RARBG.sub8.2 MB
Subs/Sdh-SDH.srt141.3 KB
Subs/Sdh.srt111.6 KB

Alternative Torrents for 'Dazed and Confused REMASTERED BluRay AACRARBG'.

TORRENT NAMEADDEDSIZESEEDSPEERSHEALTH
8/8/2020926 MB1133184
8/7/20201.1 GB936304
8/2/2020920 MB89483
Yesterday1.6 GB810508
8/8/2020696 MB81060
Yesterday804 MB773647
8/7/20202.3 GB718128
8/8/20201.7 GB705112
Yesterday2.5 GB645519
8/4/2020797 MB51156
8/2/20203.8 GB494289
Yesterday1.2 GB444641
7/9/20174.6 GB432154
8/10/20203 GB43118
8/11/20201.5 GB40919