2 Or 3 Things I Know About Her 1967 1080p BluRay X264-USURY[rarbg]

Torrent Details


2 or 3 Things I Know About Her<span style=color:#777> 1967</span> 1080p BluRay x264<span style=color:#fc9c6d>-USURY[rarbg]</span>

NAME
2 or 3 Things I Know About Her 1967 1080p BluRay x264-USURY[rarbg].torrent
CATEGORY
Movies
INFOHASH
ace4e3d95034d4db330d693b2ab739b87769143c
SIZE
11.6 GB in 5 files
ADDED
Uploaded on 02-10-2021 by our crawler pet called "Spidey".
SWARM
0 seeders & 0 peers
RATING
No votes yet.

Please login to vote for this torrent.


Description

帖子完整标题:我略知她一二 2.or.3.Things.I.Know.About.Her.1967.1080p.BluRay.x264-USURY 11.62GB  与戈达尔的其它作品一样,这部电影并不遵循传统的电影叙事弧:开端、冲突和结果。相反,它为观众呈现了女主角朱丽叶·詹森(玛丽那·维拉迪 Marina Vlady 饰)24小时繁杂但空虚的生活。60时代中期的法国,各种社会哲学思潮都在发生变化,朱丽叶表面上是一个中产阶级的已婚母亲,身份之后却是一个兼职妓女,独自应对沉重的生活压力。朱丽叶先把哭闹尖叫的孩子送到一个专门为应召女郎照看孩子的男人那里,然后开始她一天的生活。购物、做家务、带孩子,她平淡无奇的日常生活时常被客户的约会所打断。    片中的故事形态早已支离破碎,充斥着各种旁白、字幕、符号、毫不相关的镜头画面。虽然影片在拍摄时有脚本,但是戈达尔要求演员在表演时突破“第四道墙”,随机创作台词,与镜头外的工作人员进行互动,使得这部影片充满了实验性和批判意识。Video ID : 1 Format : AVC Format/Info : Advanced Video Codec Format profile : [email protected] Format settings : CABAC / 5 Ref Frames Format settings, CABAC : Yes Format settings, Reference frames : 5 frames Codec ID : V_MPEG4/ISO/AVC Duration : 1 h 27 min Bit rate : 18.4 Mb/s Width : 1 920 pixels Height : 818 pixels Display aspect ratio : 2.35:1 Frame rate mode : Constant Frame rate : 24.000 FPS Color space : YUV Chroma subsampling : 4:2:0 Bit depth : 8 bits Scan type : Progressive Bits/(Pixel*Frame) : 0.488 Stream size : 11.2 GiB (97%) Writing library : x264 core 164 r3065 ae03d92 Encoding settings : cabac=1 / ref=5 / deblock=1:-3:-3 / analyse=0x3:0x133 / me=umh / subme=10 / psy=1 / psy_rd=1.00:0.15 / mixed_ref=1 / me_range=24 / chroma_me=1 / trellis=2 / 8x8dct=1 / cqm=0 / deadzone=21,11 / fast_pskip=1 / chroma_qp_offset=-3 / threads=18 / lookahead_threads=3 / sliced_threads=0 / nr=0 / decimate=1 / interlaced=0 / bluray_compat=0 / constrained_intra=0 / bframes=8 / b_pyramid=2 / b_adapt=2 / b_bias=0 / direct=3 / weightb=1 / open_gop=0 / weightp=2 / keyint=250 / keyint_min=24 / scenecut=40 / intra_refresh=0 / rc_lookahead=60 / rc=crf / mbtree=1 / crf=18.0 / qcomp=0.60 / qpmin=0 / qpmax=69 / qpstep=4 / ip_ratio=1.40 / aq=3:0.50 Language : English Default : Yes Forced : No Color range : Limited Matrix coefficients : BT.709 Audio #1 ID : 2 Format : FLAC Format/Info : Free Lossless Audio Codec Codec ID : A_FLAC Duration : 1 h 27 min Bit rate mode : Variable Bit rate : 552 kb/s Channel(s) : 2 channels Channel layout : L R Sampling rate : 48.0 kHz Frame rate : 11.719 FPS (4096 SPF) Bit depth : 24 bits Compression mode : Lossless Stream size : 346 MiB (3%) Writing library : libFLAC 1.2.1 (UTC 2007-09-17) Language : French Default : Yes Forced : No Audio #2 ID : 3 Format : AAC LC Format/Info : Advanced Audio Codec Low Complexity Codec ID : A_AAC-2 Duration : 1 h 27 min Bit rate : 63.5 kb/s Channel(s) : 1 channel Channel layout : C Sampling rate : 48.0 kHz Frame rate : 46.875 FPS (1024 SPF) Compression mode : Lossy Delay relative to video : 9 ms Stream size : 39.7 MiB (0%) Title : English Commentary by Adrian Martin Language : English Default : No Forced : No Text #1 ID : 4 Format : UTF-8 Codec ID : S_TEXT/UTF8 Codec ID/Info : UTF-8 Plain Text Duration : 1 h 26 min Bit rate : 51 b/s Count of elements : 1000 Stream size : 32.3 KiB (0%) Title : English Language : English Default : Yes Forced : Yes Text #2 ID : 5 Format : UTF-8 Codec ID : S_TEXT/UTF8 Codec ID/Info : UTF-8 Plain Text Duration : 1 h 27 min Bit rate : 62 b/s Count of elements : 1208 Stream size : 40.1 KiB (0%) Title : French SDH Language : French Default : No Forced : No Text #3 ID : 6 Format : PGS Muxing mode : zlib Codec ID : S_HDMV/PGS Codec ID/Info : Picture based subtitle format used on BDs/HD-DVDs Duration : 1 h 27 min Bit rate : 13.1 kb/s Count of elements : 2416 Stream size : 8.19 MiB (0%) Title : French SDH Language : French Default : No Forced : No Text #4 ID : 7 Format : UTF-8 Codec ID : S_TEXT/UTF8 Codec ID/Info : UTF-8 Plain Text Duration : 1 h 26 min Bit rate : 55 b/s Count of elements : 897 Stream size : 35.4 KiB (0%) Title : German Language : German Default : No Forced : No Text #5 ID : 8 Format : UTF-8 Codec ID : S_TEXT/UTF8 Codec ID/Info : UTF-8 Plain Text Duration : 1 h 26 min Bit rate : 60 b/s Count of elements : 907 Stream size : 38.1 KiB (0%) Title : Italian Language : Italian Default : No Forced : No Text #6 ID : 9 Format : UTF-8 Codec ID : S_TEXT/UTF8 Codec ID/Info : UTF-8 Plain Text Duration : 1 h 26 min Bit rate : 47 b/s Count of elements : 760 Stream size : 29.9 KiB (0%) Title : Romanian Language : Romanian Default : No Forced : No Text #7 ID : 10 Format : UTF-8 Codec ID : S_TEXT/UTF8 Codec ID/Info : UTF-8 Plain Text Duration : 1 h 26 min Bit rate : 47 b/s Count of elements : 932 Stream size : 29.9 KiB (0%) Title : Spanish Language : Spanish Default : No Forced : No Text #8 ID : 11 Format : UTF-8 Codec ID : S_TEXT/UTF8 Codec ID/Info : UTF-8 Plain Text Duration : 1 h 26 min Bit rate : 52 b/s Count of elements : 775 Stream size : 33.1 KiB (0%) Title : Turkish Language : Turkish Default : No Forced : No Menu 00:00:00.000 : en:00:00:00.000 00:09:36.875 : en:00:09:36.875 00:22:18.000 : en:00:22:18.000 00:31:22.875 : en:00:31:22.875 00:42:19.583 : en:00:42:19.583 00:51:27.042 : en:00:51:27.042 00:58:29.333 : en:00:58:29.333 01:12:13.792 : en:01:12:13.792

Discussion

Comments 0

Post Your Comment

Files in this torrent

FILENAMESIZE
2.or.3.things.i.know.about.her.1967.1080p.bluray.x264-usury.jpg108.7 KB
2.or.3.things.i.know.about.her.1967.1080p.bluray.x264-usury.mkv11.6 GB
2.or.3.things.i.know.about.her.1967.1080p.bluray.x264-usury.nfo5.5 KB
RARBG.txt30 B
RARBG_DO_NOT_MIRROR.exe99 B

Alternative Torrents for 'or Things Know About Her'.

There are no alternative torrents found.