2010 - L'anno Del Contatto 2010 - The Year We Make Contact (1984) 1080p H264 Ac3 5.1 Ita Eng Sub Ita Eng-MIRCrew

Torrent Details


2010 - L'anno del Contatto<span style=color:#777> 2010</span> - The Year We Make Contact <span style=color:#777>(1984)</span> 1080p h264 Ac3 5.1 Ita Eng Sub Ita Eng<span style=color:#fc9c6d>-MIRCrew</span>

NAME
2010 - L'anno del Contatto 2010 - The Year We Make Contact (1984) 1080p h264 Ac3 5.1 Ita Eng Sub Ita Eng-MIRCrew.torrent
CATEGORY
Movies
INFOHASH
993bf2c68d4410b0cda5d4144f3fd95a2fe961a5
SIZE
2.3 GB in 1 file
ADDED
Uploaded on 04-10-2021 by our crawler pet called "Spidey".
SWARM
2 seeders & 0 peers
RATING
No votes yet.

Please login to vote for this torrent.


Description

2010 The Year We Make Contact - 2010 - L'anno del Contatto (1984) 1080p h264 Ac3 5.1 Ita Eng Sub Ita Eng-MIRCrew


NO FOUND ONLY ORIGINAL RELEASE


My release is always in double track audio italian and Original audio
for select it use VLC or dvd player home
not use wmp


2010 - L'anno del Contatto 2010 - The Year We Make Contact (1984) 1080p h264 Ac3 5.1 Ita Eng Sub Ita Eng-MIRCrew

Quality MIRCrew on HD 1080p da 2,3 gb










2010 - L'anno del contatto (2010, noto anche come 2010: The Year We Make Contact) è un film di fantascienza del 1984 diretto da Peter Hyams. Tratto dal romanzo 2010: Odissea due (2010: Odyssey Two) di Arthur C. Clarke, il film è il sequel di 2001: Odissea nello spazio.



Titolo originale2010
Lingua originaleinglese, russo
Paese di produzioneStati Uniti d'America
Anno1984
Durata116 min
Rapporto2,35:1
Generefantascienza
RegiaPeter Hyams
SoggettoArthur C. Clarke (romanzo)
SceneggiaturaPeter Hyams
FotografiaPeter Hyams
MontaggioMia Goldman, James Mitchell
Effetti specialiRichard Edlund, Mark Vargo, Thaine Morris, Neil Krepela, Mark Stetson, George Jenson, Henry Millar Jr.
MusicheDavid Shire
ScenografiaAlbert Brenner, Rick Simpson




Roy Scheider: Dr. Heywood Floyd
John Lithgow: Dr. Walter Curnow
Helen Mirren: Tanya Kirbuk
Bob Balaban: Dr. R. Chandra
Keir Dullea: David Bowman
Madolyn Smith Osborne: Caroline Floyd
Dana Elcar: Dimitri Moisevitch
Taliesin Jaffe: Christopher Floyd
James McEachin: Victor Milson
Mary Jo Deschanel: Betty Fernandez, moglie di Bowman
Elya Baskin: Maxim Brajlovsky
Oleg Rudnik: Dott. Vasili Orlov



Nove anni dopo la spedizione, fallita, dell'astronave Discovery One, il mondo è sull'orlo di una guerra nucleare. Alcuni scienziati dell'Unione Sovietica hanno rilevato che il relitto della Discovery One, per motivi sconosciuti, sta perdendo stabilità nella sua orbita attorno a Io, satellite del pianeta Giove, al quale si sta pericolosamente avvicinando, con il rischio imminente di un impatto.



In this sequel to 2001: A Space Odyssey (1968), a joint American-Soviet expedition is sent to Jupiter to discover what went wrong with the U.S.S. Discovery against a backdrop of growing global tensions. Amongst the mysteries the expedition must explain, are the appearance of a huge black monolith in Jupiter's orbit and the fate of H.A.L.; the Discovery's A.I. computer. Based on the novel by Arthur C. Clarke.

















[spoiler]General

Complete name : 2010 - L'anno del Contatto 2010 - The Year We Make Contact (1984) 1080p h264 Ac3 5.1 Ita Eng Sub Ita Eng-MIRCrew.mkv
Format : Matroska
Format version : Version 2
File size : 2.29 GiB
Duration : 1h 55mn
Overall bit rate : 2 823 Kbps
Movie name : MIRCrew
Encoded date : UTC 2021-09-11 18:40:19
Writing application : mkvmerge v5.8.0 ('No Sleep / Pillow') built on Sep 2 2012 15:37:04
Writing library : Lavf54.63.100
COMMENT : MIRCrew

Video
ID : 1
Format : AVC
Format/Info : Advanced Video Codec
Format profile : [email protected]
Format settings, CABAC : Yes
Format settings, ReFrames : 2 frames
Codec ID : V_MPEG4/ISO/AVC
Duration : 1h 55mn
Bit rate : 1 900 Kbps
Width : 1 920 pixels
Height : 800 pixels
Display aspect ratio : 2.40:1
Frame rate mode : Variable
Frame rate : 23.976 fps
Color space : YUV
Chroma subsampling : 4:2:0
Bit depth : 8 bits
Scan type : Progressive
Bits/(Pixel*Frame) : 0.052
Stream size : 1.52 GiB (66%)
Title : MIRCrew
Writing library : x264 core 130 r2273
Encoding settings : cabac=1 / ref=2 / deblock=1:0:0
Language : Italian
Default : Yes
Forced : No
DURATION : 01:55:55.032000000


Audio #1
ID : 2
Format : AC-3
Format/Info : Audio Coding 3
Mode extension : CM (complete main)
Codec ID : A_AC3
Duration : 1h 55mn
Bit rate mode : Constant
Bit rate : 448 Kbps
Channel(s) : 6 channels
Channel positions : Front: L C R, Side: L R, LFE
Sampling rate : 48.0 KHz
Bit depth : 16 bits
Compression mode : Lossy
Delay relative to video : -5ms
Stream size : 371 MiB (16%)
Title : Ita Ac3 5.1
Language : Italian
Default : Yes
Forced : No
DURATION : 01:55:55.968000000

Audio #2
ID : 3
Format : AC-3
Format/Info : Audio Coding 3
Mode extension : CM (complete main)
Codec ID : A_AC3
Duration : 1h 55mn
Bit rate mode : Constant
Bit rate : 448 Kbps
Channel(s) : 6 channels
Channel positions : Front: L C R, Side: L R, LFE
Sampling rate : 48.0 KHz
Bit depth : 16 bits
Compression mode : Lossy
Delay relative to video : -5ms
Stream size : 371 MiB (16%)
Title : Eng Ac3 5.1
Language : English
Default : No
Forced : No
DURATION : 01:55:55.968000000


Text #1
ID : 4
Format : PGS
Muxing mode : zlib
Codec ID : S_HDMV/PGS
Codec ID/Info : The same subtitle format used on BDs/HD-DVDs
Title : Eng
Language : English
Default : No
Forced : No
DURATION : 01:55:37.931000000

Text #2
ID : 5
Format : PGS
Muxing mode : zlib
Codec ID : S_HDMV/PGS
Codec ID/Info : The same subtitle format used on BDs/HD-DVDs
Title : Eng
Language : English
Default : No
Forced : No
DURATION : 01:55:37.931000000


Text #3
ID : 6
Format : PGS
Muxing mode : zlib
Codec ID : S_HDMV/PGS
Codec ID/Info : The same subtitle format used on BDs/HD-DVDs
Title : Ita
Language : Italian
Default : No
Forced : No
DURATION : 01:55:37.931000000


Menu
00:00:00.000 : :Chapter 01
00:02:47.542 : :Chapter 02
00:04:14.463 : :Chapter 03
00:10:09.943 : :Chapter 04
00:13:34.689 : :Chapter 05
00:16:20.146 : :Chapter 06
00:21:24.950 : :Chapter 07
00:26:43.435 : :Chapter 08
00:30:56.146 : :Chapter 09
00:32:40.834 : :Chapter 10
00:38:56.709 : :Chapter 11
00:41:30.113 : :Chapter 12
00:49:06.861 : :Chapter 13
00:54:23.302 : :Chapter 14
00:59:47.793 : :Chapter 15
01:04:29.157 : :Chapter 16
01:06:58.514 : :Chapter 17
01:09:33.127 : :Chapter 18
01:12:13.454 : :Chapter 19
01:16:18.282 : :Chapter 20
01:18:04.638 : :Chapter 21
01:20:59.480 : :Chapter 22
01:26:37.984 : :Chapter 23
01:28:50.158 : :Chapter 24
01:32:26.040 : :Chapter 25
01:35:27.347 : :Chapter 26
01:37:42.774 : :Chapter 27
01:41:49.478 : :Chapter 28
01:45:00.920 : :Chapter 29
01:46:19.623 : :Chapter 30
01:49:11.587 : :Chapter 31
01:52:11.350 : :Chapter 32



[/spoiler]


Discussion

Comments 0

Post Your Comment

Files in this torrent

FILENAMESIZE
2010 - L'anno del Contatto 2010 - The Year We Make Contact (1984) 1080p h264 Ac3 5.1 Ita Eng Sub Ita Eng-MIRCrew.mkv2.3 GB

Alternative Torrents for 'L&;anno del Contatto Year We Make Contact Eng Sub Eng'.

TORRENT NAMEADDEDSIZESEEDSPEERSHEALTH
11/16/20192.4 GB90
10/4/20212.3 GB20
9/14/20151.6 GB00