Last Week Tonight With John Oliver S08E26 1080p WEB H264-GLHF[rarbg]

Torrent Details

Last Week Tonight with John Oliver S08E26 1080p WEB H264<span style=color:#fc9c6d>-GLHF[rarbg]</span>

NAME
Last Week Tonight with John Oliver S08E26 1080p WEB H264-GLHF[rarbg].torrent
CATEGORY
Television
INFOHASH
a08855bc1aa7470e2f011907ed44179242fb08f7
SIZE
2.4 GB in 4 files
ADDED
Uploaded on 11-10-2021 by our crawler pet called "Spidey".
SWARM
162 seeders & 20 peers
RATING
No votes yet.

Please login to vote for this torrent.


Description

Video
ID : 1
Format : AVC
Format/Info : Advanced Video Codec
Format profile : [email protected]
Format settings : CABAC / 4 Ref Frames
Format settings, CABAC : Yes
Format settings, Reference frames : 4 frames
Codec ID : V_MPEG4/ISO/AVC
Duration : 29 min 22 s
Bit rate mode : Variable
Bit rate : 11.0 Mb/s
Maximum bit rate : 12.4 Mb/s
Width : 1 920 pixels
Height : 1 080 pixels
Display aspect ratio : 16:9
Frame rate mode : Constant
Frame rate : 29.970 (30000/1001) FPS
Color space : YUV
Chroma subsampling : 4:2:0
Bit depth : 8 bits
Scan type : Progressive
Bits/(Pixel*Frame) : 0.177
Stream size : 2.26 GiB (95%)
Default : Yes
Forced : No

Audio
ID : 2
Format : AC-3
Format/Info : Audio Coding 3
Commercial name : Dolby Digital
Codec ID : A_AC3
Duration : 29 min 22 s
Bit rate mode : Constant
Bit rate : 384 kb/s
Channel(s) : 2 channels
Channel layout : L R
Sampling rate : 48.0 kHz
Frame rate : 31.250 FPS (1536 SPF)
Compression mode : Lossy
Stream size : 80.7 MiB (3%)
Language : English
Service kind : Complete Main
Default : Yes
Forced : No

Text
ID : 3
Format : UTF-8
Codec ID : S_TEXT/UTF8
Codec ID/Info : UTF-8 Plain Text
Title : English
Language : English
Default : No
Forced : No

Discussion

Comments 0

Post Your Comment

Files in this torrent

FILENAMESIZE
last.week.tonight.with.john.oliver.s08e26.1080p.web.h264-glhf.mkv2.4 GB
last.week.tonight.with.john.oliver.s08e26.1080p.web.h264-glhf.nfo62 B
RARBG.txt30 B
RARBG_DO_NOT_MIRROR.exe99 B

Alternative Torrents for 'Last Week Tonight with John Oliver'.

TORRENT NAMEADDEDSIZESEEDSPEERSHEALTH
10/25/20212.4 GB92667
10/25/2021309 MB65135
10/25/2021247 MB32527
10/25/20212.4 GB25317
10/25/20212.4 GB23217
10/25/20211 GB19428
10/11/20211019 MB1776
10/11/2021236 MB1667
10/11/20212.4 GB16220
9/30/20211.1 GB1492
10/11/2021292 MB1162
10/4/20211.9 GB1136
10/6/2021402 MB1091
10/25/20211 GB1064
10/11/20212.4 GB997