The Addams Family 2 (2021) [Hindi Dub] 720p WEB-DLRip Saicord

Torrent Details


The Addams Family 2 (2021) [Hindi Dub] 720p WEB-DLRip Saicord

NAME
The Addams Family 2 (2021) [Hindi Dub] 720p WEB-DLRip Saicord.torrent
CATEGORY
Movies
INFOHASH
5ad8b872d7732c4e265deb8c0440ff464a105163
SIZE
1.4 GB in 1 file
ADDED
Uploaded on 11-10-2021 by our crawler pet called "Spidey".
SWARM
0 seeders & 0 peers
RATING
No votes yet.

Please login to vote for this torrent.


Description





https://www.imdb.com/title/tt11125620













Video

ID                                       : 1

Format                                   : AVC

Format/Info                              : Advanced Video Codec

Format profile                           : [email protected]

Format settings                          : CABAC / 1 Ref Frames

Format settings, CABAC                   : Yes

Format settings, Reference frames        : 1 frame

Codec ID                                 : avc1

Codec ID/Info                            : Advanced Video Coding

Duration                                 : 1 h 34 min

Bit rate mode                            : Constant

Bit rate                                 : 2 000 kb/s

Width                                    : 1 280 pixels

Height                                   : 694 pixels

Display aspect ratio                     : 1.85:1

Frame rate mode                          : Constant

Frame rate                               : 23.976 (24000/1001) FPS

Color space                              : YUV

Chroma subsampling                       : 4:2:0

Bit depth                                : 8 bits

Scan type                                : Progressive

Bits/(Pixel*Frame)                       : 0.094

Stream size                              : 1.32 GiB (91%)

Codec configuration box                  : avcC



Audio

ID                                       : 2

Format                                   : AAC LC

Format/Info                              : Advanced Audio Codec Low Complexity

Codec ID                                 : mp4a-40-2

Duration                                 : 1 h 34 min

Source duration                          : 1 h 34 min

Bit rate mode                            : Constant

Bit rate                                 : 192 kb/s

Channel(s)                               : 2 channels

Channel layout                           : L R

Sampling rate                            : 48.0 kHz

Frame rate                               : 46.875 FPS (1024 SPF)

Compression mode                         : Lossy

Stream size                              : 130 MiB (9%)

Source stream size                       : 130 MiB (9%)

Default                                  : Yes

Alternate group                          : 1

mdhd_Duration                            : 5657174

Discussion

Comments 0

Post Your Comment

Files in this torrent

FILENAMESIZE
The Addams Family 2 (2021) [Hindi Dub] 720p WEB-DLRip Saicord.mp41.4 GB

Alternative Torrents for 'Addams Family Hindi Dub DLRip Saicord'.

TORRENT NAMEADDEDSIZESEEDSPEERSHEALTH
10/11/2021942 MB00
10/11/20211.4 GB00
10/11/20212.8 GB00