The Immigrant 2013 720p BluRay H264 AAC-RARBG

Torrent Details

The Immigrant 2013 720p BluRay H264 AAC-RARBGThe Immigrant 2013 720p BluRay H264 AAC-RARBG

NAME
The Immigrant 2013 720p BluRay H264 AAC-RARBG.torrent
CATEGORY
Movies
INFOHASH
58ba2f1b6059b2edfd85795318bf7349766465fe
SIZE
1.4 GB in 6 files
ADDED
Uploaded on 23-06-2016 by our crawler pet called "Spidey".
SWARM
0 seeders & 0 peers
RATING
No votes yet.

Please login to vote for this torrent.


Description

https://rarbg.to
The.Immigrant.2013.720p.BluRay.H264.AAC-RARBG

Screens :










Mediainfo :

Video
ID : 1
Format : AVC
Format/Info : Advanced Video Codec
Format profile : [email protected]
Format settings, CABAC : Yes
Format settings, ReFrames : 4 frames
Codec ID : avc1
Codec ID/Info : Advanced Video Coding
Duration : 1h 57mn
Bit rate : 1 500 Kbps
Width : 1 280 pixels
Height : 540 pixels
Display aspect ratio : 2.40:1
Frame rate mode : Constant
Frame rate : 23.976 (23976/1000) fps
Color space : YUV
Chroma subsampling : 4:2:0
Bit depth : 8 bits
Scan type : Progressive
Bits/(Pixel*Frame) : 0.091
Stream size : 1.23 GiB (87%)
Writing library : x264 core 148 r2638M 7599210
Encoding settings : cabac=1 / ref=4 / deblock=1:-1:-1 / analyse=0x3:0x113 / me=umh / subme=9 / psy=1 / psy_rd=1.00:0.15 / mixed_ref=1 / me_range=24 / chroma_me=1 / trellis=2 / 8x8dct=1 / cqm=0 / deadzone=21,11 / fast_pskip=1 / chroma_qp_offset=-3 / threads=32 / lookahead_threads=4 / sliced_threads=0 / nr=0 / decimate=1 / interlaced=0 / bluray_compat=0 / constrained_intra=0 / bframes=3 / b_pyramid=2 / b_adapt=2 / b_bias=0 / direct=3 / weightb=1 / open_gop=0 / weightp=2 / keyint=250 / keyint_min=25 / scenecut=40 / intra_refresh=0 / rc_lookahead=50 / rc=2pass / mbtree=1 / bitrate=1500 / ratetol=1.0 / qcomp=0.60 / qpmin=0 / qpmax=69 / qpstep=4 / cplxblur=20.0 / qblur=0.5 / vbv_maxrate=31250 / vbv_bufsize=31250 / nal_hrd=none / filler=0 / ip_ratio=1.40 / aq=3:1.00
Encoded date : UTC 2016-06-23 17:58:40
Tagged date : UTC 2016-06-23 17:58:40

Audio
ID : 2
Format : AAC
Format/Info : Advanced Audio Codec
Format profile : LC
Codec ID : 40
Duration : 1h 57mn
Bit rate mode : Constant
Bit rate : 224 Kbps
Channel(s) : 2 channels
Channel(s)_Original : 6 channels
Channel positions : Front: L C R, Side: L R, LFE
Sampling rate : 48.0 KHz
Frame rate : 46.875 fps (1024 spf)
Compression mode : Lossy
Stream size : 188 MiB (13%)
Language : English
Default : Yes
Alternate group : 1
Encoded date : UTC 2016-06-23 17:58:40
Tagged date : UTC 2016-06-23 17:58:40

Discussion

Comments 0

Post Your Comment

Files in this torrent

FILENAMESIZE
RARBG.COM.mp4992.9 KB
RARBG.COM.txt34 B
Subs/2_Eng.srt7.6 KB
Subs/3_Eng.srt86.7 KB
The.Immigrant.2013.720p.BluRay.H264.AAC-RARBG.mp41.4 GB
The.Immigrant.2013.720p.BluRay.H264.AAC-RARBG.nfo3.9 KB

Alternative Torrents for 'Immigrant BluRay AACRARBG'.

TORRENT NAMEADDEDSIZESEEDSPEERSHEALTH
7/30/20201.8 GB1213223
8/2/2020920 MB1105182
7/21/2020797 MB861313
8/2/20203.8 GB613356
7/30/2020864 MB506138
7/22/20201019 MB49768
7/9/20174.6 GB472139
7/31/2020798 MB45697
7/22/20202 GB43163
7/30/2020797 MB41371
7/20/20201.7 GB387111
7/30/20201.7 GB37693
8/2/20201.1 GB369366
Yesterday2.4 GB358265
Yesterday3.8 GB355106