Free Guy (2021) BluRay 720p ORG Multi Audio [Hin+Eng+Tam+Tel] ESub 1.3GB [Themoviesboss]

Torrent Details


Free Guy (2021) BluRay 720p ORG Multi Audio [Hin+Eng+Tam+Tel] ESub 1.3GB [Themoviesboss]

NAME
Free Guy (2021) BluRay 720p ORG Multi Audio [Hin+Eng+Tam+Tel] ESub 1.3GB [Themoviesboss].torrent
CATEGORY
Movies
INFOHASH
af9ab208f64df4a82f8e5dda1b126ecc976d5fe2
SIZE
1.3 GB in 1 file
ADDED
Uploaded on 15-10-2021 by our crawler pet called "Spidey".
SWARM
0 seeders & 0 peers
RATING
No votes yet.

Please login to vote for this torrent.


Description

Encoded by                               : Harley Quinn


Movie name :
Free Guy (2021) BluRay 720p ORG Multi Audio [Hin+Eng+Tam+Tel] ESub 1.3GB [Themoviesboss]
[bGeneral
Format : Matroska
Format version : Version 4
File size : 1.34 GiB
Duration : 1 h 54 min
Overall bit rate : 1 668 kb/s
Encoded date : UTC 2021-10-15 10:17:52
Writing application : mkvmerge v60.0.0 ('Are We Copies?') 64-bit
Writing library : libebml v1.4.2 + libmatroska v1.6.4

Video
ID : 1
Format : AVC
Format/Info : Advanced Video Codec
Format profile : [email protected]
Format settings : CABAC / 4 Ref Frames
Format settings, CABAC : Yes
Format settings, Reference frames : 4 frames
Codec ID : V_MPEG4/ISO/AVC
Duration : 1 h 54 min
Bit rate : 1 150 kb/s
Width : 1 280 pixels
Height : 534 pixels
Display aspect ratio : 2.40:1
Original display aspect ratio : 2.40:1
Frame rate mode : Constant
Frame rate : 23.976 (24000/1001) FPS
Color space : YUV
Chroma subsampling : 4:2:0
Bit depth : 8 bits
Scan type : Progressive
Bits/(Pixel*Frame) : 0.070
Stream size : 946 MiB (69%)
Writing library : x264 core 161
Language : English
Default : Yes
Forced : No
Color range : Limited
Matrix coefficients : BT.709

Audio #1
ID : 2
Format : AAC LC
Format/Info : Advanced Audio Codec Low Complexity
Codec ID : A_AAC-2
Duration : 1 h 54 min
Bit rate : 128 kb/s
Channel(s) : 2 channels
Channel layout : L R
Sampling rate : 48.0 kHz
Frame rate : 46.875 FPS (1024 SPF)
Compression mode : Lossy
Delay relative to video : 19 ms
Stream size : 106 MiB (8%)
Language : Hindi
Default : Yes
Forced : No

Audio #2
ID : 3
Format : AAC LC
Format/Info : Advanced Audio Codec Low Complexity
Codec ID : A_AAC-2
Duration : 1 h 54 min
Bit rate : 128 kb/s
Channel(s) : 2 channels
Channel layout : L R
Sampling rate : 48.0 kHz
Frame rate : 46.875 FPS (1024 SPF)
Compression mode : Lossy
Delay relative to video : 19 ms
Stream size : 106 MiB (8%)
Language : Tamil
Default : No
Forced : No

Audio #3
ID : 4
Format : AAC LC
Format/Info : Advanced Audio Codec Low Complexity
Codec ID : A_AAC-2
Duration : 1 h 54 min
Bit rate : 128 kb/s
Channel(s) : 2 channels
Channel layout : L R
Sampling rate : 48.0 kHz
Frame rate : 46.875 FPS (1024 SPF)
Compression mode : Lossy
Delay relative to video : -21 ms
Stream size : 105 MiB (8%)
Language : English
Default : No
Forced : No

Audio #4
ID : 5
Format : AAC LC
Format/Info : Advanced Audio Codec Low Complexity
Codec ID : A_AAC-2
Duration : 1 h 54 min
Bit rate : 128 kb/s
Channel(s) : 2 channels
Channel layout : L R
Sampling rate : 48.0 kHz
Frame rate : 46.875 FPS (1024 SPF)
Compression mode : Lossy
Delay relative to video : 19 ms
Stream size : 106 MiB (8%)
Language : Telugu
Default : No
Forced : No

Text
ID : 6
Format : UTF-8
Codec ID : S_TEXT/UTF8
Codec ID/Info : UTF-8 Plain Text
Duration : 1 h 45 min
Bit rate : 90 b/s
Count of elements : 2136
Stream size : 70.0 KiB (0%)
Language : English
Default : Yes
Forced : No
[/b]
                                       








Discussion

Comments 0

Post Your Comment

Files in this torrent

FILENAMESIZE
Free Guy (2021) BluRay 720p ORG Multi Audio [Hin+Eng+Tam+Tel] ESub 1.3GB [Themoviesboss].mkv1.3 GB

Alternative Torrents for 'Free Guy BluRay ORG Multi Audio HinEngTamTel ESub Themoviesboss'.

There are no alternative torrents found.