Support Your Local Gunfighter 1971 720p BluRay H264 AAC-RARBG

Torrent Details

Support Your Local Gunfighter 1971 720p BluRay H264 AAC-RARBGSupport Your Local Gunfighter 1971 720p BluRay H264 AAC-RARBG

NAME
Support Your Local Gunfighter 1971 720p BluRay H264 AAC-RARBG.torrent
CATEGORY
Movies
INFOHASH
b5c0673d0ca85430b68b80bd62d8d268f1b56c85
SIZE
1.1 GB in 6 files
ADDED
Uploaded on 08-07-2016 by our crawler pet called "Spidey".
SWARM
0 seeders & 0 peers
RATING
No votes yet.

Please login to vote for this torrent.


Description

https://rarbg.to
Support.Your.Local.Gunfighter.1971.720p.BluRay.H264.AAC-RARBG

Screens :










Mediainfo :

Video
ID : 1
Format : AVC
Format/Info : Advanced Video Codec
Format profile : [email protected]
Format settings, CABAC : Yes
Format settings, ReFrames : 4 frames
Codec ID : avc1
Codec ID/Info : Advanced Video Coding
Duration : 1h 32mn
Bit rate : 1 500 Kbps
Width : 1 280 pixels
Height : 694 pixels
Display aspect ratio : 1.85:1
Frame rate mode : Constant
Frame rate : 23.976 (23976/1000) fps
Color space : YUV
Chroma subsampling : 4:2:0
Bit depth : 8 bits
Scan type : Progressive
Bits/(Pixel*Frame) : 0.070
Stream size : 991 MiB (87%)
Writing library : x264 core 148 r2597M e86f3a1
Encoding settings : cabac=1 / ref=4 / deblock=1:-1:-1 / analyse=0x3:0x113 / me=umh / subme=9 / psy=1 / psy_rd=1.00:0.15 / mixed_ref=1 / me_range=24 / chroma_me=1 / trellis=2 / 8x8dct=1 / cqm=0 / deadzone=21,11 / fast_pskip=1 / chroma_qp_offset=-3 / threads=32 / lookahead_threads=4 / sliced_threads=0 / nr=0 / decimate=1 / interlaced=0 / bluray_compat=0 / constrained_intra=0 / bframes=3 / b_pyramid=2 / b_adapt=2 / b_bias=0 / direct=3 / weightb=1 / open_gop=0 / weightp=2 / keyint=250 / keyint_min=25 / scenecut=40 / intra_refresh=0 / rc_lookahead=50 / rc=2pass / mbtree=1 / bitrate=1500 / ratetol=1.0 / qcomp=0.60 / qpmin=0 / qpmax=69 / qpstep=4 / cplxblur=20.0 / qblur=0.5 / vbv_maxrate=31250 / vbv_bufsize=31250 / nal_hrd=none / filler=0 / ip_ratio=1.40 / aq=3:1.00
Encoded date : UTC 2016-07-08 09:04:48
Tagged date : UTC 2016-07-08 09:04:48

Audio
ID : 2
Format : AAC
Format/Info : Advanced Audio Codec
Format profile : LC
Codec ID : 40
Duration : 1h 32mn
Bit rate mode : Constant
Bit rate : 224 Kbps
Channel(s) : 2 channels
Channel(s)_Original : 1 channel
Channel positions : Front: C
Sampling rate : 48.0 KHz
Frame rate : 46.875 fps (1024 spf)
Compression mode : Lossy
Stream size : 148 MiB (13%)
Language : English
Default : Yes
Alternate group : 1
Encoded date : UTC 2016-07-08 09:04:48
Tagged date : UTC 2016-07-08 09:04:48

Discussion

Comments 0

Post Your Comment

Files in this torrent

FILENAMESIZE
RARBG.COM.mp4992.9 KB
RARBG.COM.txt34 B
Subs/2_Eng.srt103.7 KB
Subs/3_Eng.srt106.2 KB
Support.Your.Local.Gunfighter.1971.720p.BluRay.H264.AAC-RARBG.mp41.1 GB
Support.Your.Local.Gunfighter.1971.720p.BluRay.H264.AAC-RARBG.nfo3.9 KB

Alternative Torrents for 'Support Your Local Gunfighter BluRay AAC'.

TORRENT NAMEADDEDSIZESEEDSPEERSHEALTH
5/26/20181.8 GB00
7/8/20161.1 GB00
7/8/20161.8 GB00