The Andromeda Strain 1971 720p BluRay H264 AAC-RARBG

Torrent Details

The Andromeda Strain 1971 720p BluRay H264 AAC-RARBGThe Andromeda Strain 1971 720p BluRay H264 AAC-RARBG

NAME
The Andromeda Strain 1971 720p BluRay H264 AAC-RARBG.torrent
CATEGORY
Movies
INFOHASH
f7e06e94052d3d514ecdf94f39a16b127aabefb3
SIZE
1.6 GB in 4 files
ADDED
Uploaded on 16-07-2016 by our crawler pet called "Spidey".
SWARM
0 seeders & 0 peers
RATING
No votes yet.

Please login to vote for this torrent.


Description

https://rarbg.to
The.Andromeda.Strain.1971.720p.BluRay.H264.AAC-RARBG

Screens :










Mediainfo :

Video
ID : 1
Format : AVC
Format/Info : Advanced Video Codec
Format profile : [email protected]
Format settings, CABAC : Yes
Format settings, ReFrames : 4 frames
Codec ID : avc1
Codec ID/Info : Advanced Video Coding
Duration : 2h 10mn
Bit rate : 1 500 Kbps
Width : 1 280 pixels
Height : 544 pixels
Display aspect ratio : 2.35:1
Frame rate mode : Constant
Frame rate : 23.976 (23976/1000) fps
Color space : YUV
Chroma subsampling : 4:2:0
Bit depth : 8 bits
Scan type : Progressive
Bits/(Pixel*Frame) : 0.090
Stream size : 1.37 GiB (87%)
Writing library : x264 core 148 r2638M 7599210
Encoding settings : cabac=1 / ref=4 / deblock=1:-1:-1 / analyse=0x3:0x113 / me=umh / subme=9 / psy=1 / psy_rd=1.00:0.15 / mixed_ref=1 / me_range=24 / chroma_me=1 / trellis=2 / 8x8dct=1 / cqm=0 / deadzone=21,11 / fast_pskip=1 / chroma_qp_offset=-3 / threads=32 / lookahead_threads=4 / sliced_threads=0 / nr=0 / decimate=1 / interlaced=0 / bluray_compat=0 / constrained_intra=0 / bframes=3 / b_pyramid=2 / b_adapt=2 / b_bias=0 / direct=3 / weightb=1 / open_gop=0 / weightp=2 / keyint=250 / keyint_min=25 / scenecut=40 / intra_refresh=0 / rc_lookahead=50 / rc=2pass / mbtree=1 / bitrate=1500 / ratetol=1.0 / qcomp=0.60 / qpmin=0 / qpmax=69 / qpstep=4 / cplxblur=20.0 / qblur=0.5 / vbv_maxrate=31250 / vbv_bufsize=31250 / nal_hrd=none / filler=0 / ip_ratio=1.40 / aq=3:1.00
Encoded date : UTC 2016-07-16 09:54:42
Tagged date : UTC 2016-07-16 09:54:42

Audio
ID : 2
Format : AAC
Format/Info : Advanced Audio Codec
Format profile : LC
Codec ID : 40
Duration : 2h 10mn
Bit rate mode : Constant
Bit rate : 224 Kbps
Channel(s) : 2 channels
Channel positions : Front: L R
Sampling rate : 48.0 KHz
Frame rate : 46.875 fps (1024 spf)
Compression mode : Lossy
Stream size : 209 MiB (13%)
Language : English
Default : Yes
Alternate group : 1
Encoded date : UTC 2016-07-16 09:54:42
Tagged date : UTC 2016-07-16 09:54:42

Discussion

Comments 0

Post Your Comment

Files in this torrent

FILENAMESIZE
RARBG.COM.mp4992.9 KB
RARBG.COM.txt34 B
The.Andromeda.Strain.1971.720p.BluRay.H264.AAC-RARBG.mp41.6 GB
The.Andromeda.Strain.1971.720p.BluRay.H264.AAC-RARBG.nfo3.8 KB

Alternative Torrents for 'Andromeda Strain BluRay AACRARBG'.

TORRENT NAMEADDEDSIZESEEDSPEERSHEALTH
8/2/2020920 MB1192174
7/30/20201.8 GB931110
7/31/20201.9 GB810367
8/2/20203.8 GB636309
8/1/20201 GB632148
7/9/20174.6 GB488193
8/1/20202.1 GB460198
7/22/20202 GB44948
7/22/20201019 MB44575
7/30/2020864 MB38275
7/31/2020798 MB37547
8/1/2020878 MB32149
7/30/2020797 MB30747
Yesterday1.9 GB295157
7/30/20201.7 GB27760