Barbershop The Next Cut 2016 1080p BluRay REMUX AVC DTS-HD MA 5.1-RARBG

Torrent Details

Barbershop The Next Cut 2016 1080p BluRay REMUX AVC DTS-HD MA 5.1-RARBGBarbershop The Next Cut 2016 1080p BluRay REMUX AVC DTS-HD MA 5.1-RARBG

NAME
Barbershop The Next Cut 2016 1080p BluRay REMUX AVC DTS-HD MA 5.1-RARBG.torrent
CATEGORY
Movies
INFOHASH
4672f6c1a48e4768048c8ee8ca1d9b00f3a02631
SIZE
32.4 GB in 4 files
ADDED
Uploaded on 17-07-2016 by our crawler pet called "Spidey".
SWARM
0 seeders & 0 peers
RATING
No votes yet.

Please login to vote for this torrent.


Description

https://rarbg.to
Barbershop.The.Next.Cut.2016.1080p.BluRay.REMUX.AVC.DTS-HD.MA.5.1-RARBG

Screens :












Mediainfo :

Video
ID : 1
Format : AVC
Format/Info : Advanced Video Codec
Format profile : [email protected]
Format settings, CABAC : Yes
Format settings, ReFrames : 4 frames
Codec ID : V_MPEG4/ISO/AVC
Duration : 1h 51mn
Bit rate mode : Variable
Maximum bit rate : 40.0 Mbps
Width : 1 920 pixels
Height : 1 080 pixels
Display aspect ratio : 16:9
Frame rate mode : Constant
Frame rate : 23.976 (24000/1001) fps
Color space : YUV
Chroma subsampling : 4:2:0
Bit depth : 8 bits
Scan type : Progressive
Title : Barbershop.The.Next.Cut.2016.1080p.BluRay.REMUX.AVC.DTS-HD.MA.5.1-RARBG
Language : English
Default : No
Forced : No

Audio #1
ID : 2
Format : DTS
Format/Info : Digital Theater Systems
Format profile : MA / Core
Mode : 16
Format settings, Endianness : Big
Codec ID : A_DTS
Duration : 1h 51mn
Bit rate mode : Variable / Constant
Bit rate : Unknown / 1 509 Kbps
Channel(s) : 6 channels
Channel positions : Front: L C R, Side: L R, LFE
Sampling rate : 48.0 KHz
Frame rate : 93.750 fps (512 spf)
Bit depth : 24 bits
Compression mode : Lossless / Lossy
Title : Barbershop.The.Next.Cut.2016.1080p.BluRay.REMUX.AVC.DTS-HD.MA.5.1-RARBG
Language : English
Default : Yes
Forced : No

Audio #2
ID : 3
Format : DTS
Format/Info : Digital Theater Systems
Mode : 16
Format settings, Endianness : Big
Codec ID : A_DTS
Duration : 1h 51mn
Bit rate mode : Constant
Bit rate : 1 509 Kbps
Channel(s) : 6 channels
Channel positions : Front: L C R, Side: L R, LFE
Sampling rate : 48.0 KHz
Frame rate : 93.750 fps (512 spf)
Bit depth : 24 bits
Compression mode : Lossy
Stream size : 1.18 GiB (4%)
Title : Barbershop.The.Next.Cut.2016.1080p.BluRay.REMUX.AVC.DTS-HD.MA.5.1-RARBG
Language : English
Default : No
Forced : No

Audio #3
ID : 4
Format : AC-3
Format/Info : Audio Coding 3
Mode extension : CM (complete main)
Format settings, Endianness : Big
Codec ID : A_AC3
Duration : 1h 51mn
Bit rate mode : Constant
Bit rate : 640 Kbps
Channel(s) : 6 channels
Channel positions : Front: L C R, Side: L R, LFE
Sampling rate : 48.0 KHz
Frame rate : 31.250 fps (1536 spf)
Compression mode : Lossy
Stream size : 511 MiB (2%)
Title : Barbershop.The.Next.Cut.2016.1080p.BluRay.REMUX.AVC.DTS-HD.MA.5.1-RARBG
Language : English
Default : No
Forced : No

Audio #4
ID : 5
Format : AC-3
Format/Info : Audio Coding 3
Mode extension : CM (complete main)
Format settings, Endianness : Big
Codec ID : A_AC3
Duration : 1h 51mn
Bit rate mode : Constant
Bit rate : 640 Kbps
Channel(s) : 6 channels
Channel positions : Front: L C R, Side: L R, LFE
Sampling rate : 48.0 KHz
Frame rate : 31.250 fps (1536 spf)
Compression mode : Lossy
Stream size : 511 MiB (2%)
Title : Barbershop.The.Next.Cut.2016.1080p.BluRay.REMUX.AVC.DTS-HD.MA.5.1-RARBG
Language : Spanish
Default : No
Forced : No

Audio #5
ID : 6
Format : AC-3
Format/Info : Audio Coding 3
Mode extension : CM (complete main)
Format settings, Endianness : Big
Codec ID : A_AC3
Duration : 1h 51mn
Bit rate mode : Constant
Bit rate : 640 Kbps
Channel(s) : 6 channels
Channel positions : Front: L C R, Side: L R, LFE
Sampling rate : 48.0 KHz
Frame rate : 31.250 fps (1536 spf)
Compression mode : Lossy
Stream size : 511 MiB (2%)
Title : Barbershop.The.Next.Cut.2016.1080p.BluRay.REMUX.AVC.DTS-HD.MA.5.1-RARBG
Language : Portuguese
Default : No
Forced : No

Text #1
ID : 7
Format : PGS
Muxing mode : zlib
Codec ID : S_HDMV/PGS
Codec ID/Info : Picture based subtitle format used on BDs/HD-DVDs
Title : English-PGS
Language : English
Default : No
Forced : No

Text #2
ID : 8
Format : PGS
Muxing mode : zlib
Codec ID : S_HDMV/PGS
Codec ID/Info : Picture based subtitle format used on BDs/HD-DVDs
Title : French-PGS
Language : French
Default : No
Forced : No

Text #3
ID : 9
Format : PGS
Muxing mode : zlib
Codec ID : S_HDMV/PGS
Codec ID/Info : Picture based subtitle format used on BDs/HD-DVDs
Title : Spanish-PGS
Language : Spanish
Default : No
Forced : No

Text #4
ID : 10
Format : PGS
Muxing mode : zlib
Codec ID : S_HDMV/PGS
Codec ID/Info : Picture based subtitle format used on BDs/HD-DVDs
Title : Portuguese-PGS
Language : Portuguese
Default : No
Forced : No

Menu
00:00:00.000 : en:Chapter 01
00:10:32.923 : en:Chapter 02
00:20:28.727 : en:Chapter 03
00:27:50.627 : en:Chapter 04
00:38:26.095 : en:Chapter 05
00:51:16.615 : en:Chapter 06
01:00:35.715 : en:Chapter 07
01:09:44.221 : en:Chapter 08
01:23:24.541 : en:Chapter 09
01:31:27.773 : en:Chapter 10
01:37:33.973 : en:Chapter 11
01:46:39.351 : en:Chapter 12

Discussion

Comments 0

Post Your Comment

Files in this torrent

FILENAMESIZE
Barbershop.The.Next.Cut.2016.1080p.BluRay.REMUX.AVC.DTS-HD.MA.5.1-RARBG.mkv32.4 GB
Barbershop.The.Next.Cut.2016.1080p.BluRay.REMUX.AVC.DTS-HD.MA.5.1-RARBG.nfo10.3 KB
RARBG.com.mp4992.9 KB
RARBG.com.txt34 B

Alternative Torrents for 'Barbershop Next Cut BluRay REMUX AVC DTSHD MA .RARBG'.

TORRENT NAMEADDEDSIZESEEDSPEERSHEALTH
10/17/20202.1 GB2289732
10/20/20202.6 GB981328
10/9/20204 GB971106
10/14/20202 GB912182
Today3.1 GB829279
10/17/20203 GB81553
10/14/20201004 MB78568
10/20/20201.4 GB74157
10/12/2020586 MB73659
10/18/20201.6 GB712103
Today1.3 GB704184
10/20/20202 GB65887
Today600 MB625116
10/12/2020285 MB49932
10/18/20202.2 GB48727