Bar Rescue S04E48 Gone In A Flash 1080p SPIK WEBRip AAC2.0 X264-NTb[rarbg]

Torrent Details

Bar Rescue S04E48 Gone in a Flash 1080p SPIK WEBRip AAC2.0 x264<span style=color:#fc9c6d>-NTb[rarbg]</span>Bar Rescue S04E48 Gone in a Flash 1080p SPIK WEBRip AAC2.0 x264<span style=color:#fc9c6d>-NTb[rarbg]</span>

NAME
Bar Rescue S04E48 Gone in a Flash 1080p SPIK WEBRip AAC2.0 x264-NTb[rarbg].torrent
CATEGORY
Television
INFOHASH
7527b2ea9e91348491af809f6944b77a0ac0a236
SIZE
1.4 GB in 2 files
ADDED
Uploaded on 19-07-2016 by our crawler pet called "Spidey".
SWARM
0 seeders & 0 peers
RATING
No votes yet.

Please login to vote for this torrent.


Description

https://rarbg.to
Bar.Rescue.S04E48.Gone.in.a.Flash.1080p.SPIK.WEBRip.AAC2.0.x264-NTb[rartv]

Screens :


Mediainfo :

Video
ID : 1
Format : AVC
Format/Info : Advanced Video Codec
Format profile : [email protected]
Format settings, CABAC : Yes
Format settings, ReFrames : 4 frames
Codec ID : V_MPEG4/ISO/AVC
Duration : 41mn 14s
Bit rate : 4 838 Kbps
Width : 1 920 pixels
Height : 1 080 pixels
Display aspect ratio : 16:9
Frame rate mode : Constant
Frame rate : 23.976 (23976/1000) fps
Color space : YUV
Chroma subsampling : 4:2:0
Bit depth : 8 bits
Scan type : Progressive
Bits/(Pixel*Frame) : 0.097
Stream size : 1.39 GiB (97%)
Writing library : x264 core 148
Encoding settings : cabac=1 / ref=4 / deblock=1:0:0 / analyse=0x3:0x113 / me=umh / subme=10 / psy=1 / psy_rd=1.00:0.15 / mixed_ref=1 / me_range=32 / chroma_me=1 / trellis=2 / 8x8dct=1 / cqm=0 / deadzone=21,11 / fast_pskip=1 / chroma_qp_offset=-3 / threads=24 / lookahead_threads=6 / sliced_threads=0 / nr=0 / decimate=1 / interlaced=0 / bluray_compat=0 / constrained_intra=0 / bframes=3 / b_pyramid=0 / b_adapt=2 / b_bias=0 / direct=3 / weightb=1 / open_gop=0 / weightp=2 / keyint=48 / keyint_min=4 / scenecut=0 / intra_refresh=0 / rc_lookahead=48 / rc=crf / mbtree=1 / crf=19.0 / qcomp=0.75 / qpmin=10 / qpmax=51 / qpstep=4 / vbv_maxrate=5000 / vbv_bufsize=10000 / crf_max=0.0 / nal_hrd=none / filler=0 / ip_ratio=1.40 / aq=1:0.80
Default : Yes
Forced : No

Audio
ID : 2
Format : AAC
Format/Info : Advanced Audio Codec
Format profile : LC
Codec ID : A_AAC
Duration : 41mn 14s
Bit rate : 128 Kbps
Channel(s) : 2 channels
Channel positions : Front: L R
Sampling rate : 48.0 KHz
Frame rate : 46.875 fps (1024 spf)
Compression mode : Lossy
Delay relative to video : -43ms
Stream size : 37.8 MiB (3%)
Default : Yes
Forced : No

Discussion

Comments 0

Post Your Comment

Files in this torrent

FILENAMESIZE
Bar.Rescue.S04E48.Gone.in.a.Flash.1080p.SPIK.WEBRip.AAC2.0.x264-NTb.mkv1.4 GB
RARBG.com.txt34 B

Alternative Torrents for 'Bar Rescue Gone Flash SPIK AAC'.

There are no alternative torrents found.