Tabbar (2021) 720p Full Season 1 EP-(01 TO 08) Hindi WEB-DL X264 AAC DD 2 0 By Full4Movies

Torrent Details

Tabbar <span style=color:#777>(2021)</span> 720p Full Season 1 EP-(01 TO 08) Hindi WEB-DL x264 AAC DD 2 0 <span style=color:#fc9c6d>By Full4Movies</span>

NAME
Tabbar (2021) 720p Full Season 1 EP-(01 TO 08) Hindi WEB-DL x264 AAC DD 2 0 By Full4Movies.torrent
CATEGORY
Television
INFOHASH
68475557da9959ec64e61177d619a5088db2358f
SIZE
2.9 GB in 8 files
ADDED
Uploaded on 25-10-2021 by our crawler pet called "Spidey".
SWARM
0 seeders & 0 peers
RATING
No votes yet.

Please login to vote for this torrent.


Description





Visit Us = https://www.full4movies.site/







General

Complete name                  : Tabbar (2021) 720p Full Season 1 EP-(01 TO 08) Hindi WEB-DL x264 AAC DD 2.0 By Full4Movies

Format                         : Matroska

Format version                 : Version 4

File size                      : 437 MiB

Duration                       : 46 min 1 s

Overall bit rate               : 1 328 kb/s

Encoded date                   : UTC 2021-10-17 07:58:30 / UTC

Writing application            : mkvmerge v8.3.0 ('Over the Horizon') 64bit

Writing library                : libebml v1.3.1 + libmatroska v1.4.2 / Lavf55.12.0

Attachments                    : 383845052472320.jpg



Video

ID                             : 1

Format                         : AVC

Format/Info                    : Advanced Video Codec

Format profile                 : [email protected]

Format settings                : CABAC / 4 Ref Frames

Format settings, CABAC         : Yes

Format settings, Reference fra : 4 frames

Codec ID                       : V_MPEG4/ISO/AVC

Duration                       : 46 min 1 s

Bit rate                       : 1 200 kb/s

Width                          : 1 280 pixels

Height                         : 640 pixels

Display aspect ratio           : 2.000

Frame rate mode                : Constant

Frame rate                     : 25.000 FPS

Color space                    : YUV

Chroma subsampling             : 4:2:0

Bit depth                      : 8 bits

Scan type                      : Progressive

Bits/(Pixel*Frame)             : 0.059

Stream size                    : 394 MiB (90%)

Writing library                : x264 core 142 r2479 dd79a61

Default                        : Yes

Forced                         : No

Color range                    : Limited

Color primaries                : BT.709

Transfer characteristics       : BT.709

Matrix coefficients            : BT.709



Audio

ID                             : 2

Format                         : AAC LC SBR

Format/Info                    : Advanced Audio Codec Low Complexity with Spectral Band Replication

Commercial name                : HE-AAC

Format settings                : NBC

Codec ID                       : A_AAC-5

Duration                       : 46 min 1 s

Bit rate                       : 128 kb/s

Channel(s)                     : 2 channels

Channel layout                 : L R

Sampling rate                  : 48.0 kHz

Frame rate                     : 23.438 FPS (2048 SPF)

Compression mode               : Lossy

Delay relative to video        : -105 ms

Stream size                    : 42.1 MiB (10%)

Title                          : Stereo

Language                       : Hindi

Default                        : Yes

Forced                         : No



Screen Shoots

Discussion

Comments 0

Post Your Comment

Files in this torrent

FILENAMESIZE
Tabbar.S01E01.Karam.Din.720p.SONY.WEB-DL.AAC2.0.x264-Full4Movies.mkv437.2 MB
Tabbar.s01e02.jhooth.720p.sony.web-dl.aac2.0.x264-Full4Movies.mkv312.2 MB
Tabbar.s01e03.sach.720p.sony.web-dl.aac2.0.x264-Full4Movies.mkv327.6 MB
Tabbar.s01e04.tureya.ja.720p.sony.web-dl.aac2.0.x264-Full4Movies.mkv348.3 MB
Tabbar.s01e05.kaala.720p.sony.web-dl.aac2.0.x264-Full4Movies.mkv399 MB
Tabbar.s01e06.ishq.720p.sony.web-dl.aac2.0.x264-Full4Movies.mkv385.5 MB
Tabbar.s01e07.hanera.720p.sony.web-dl.aac2.0.x264-Full4Movies.mkv326.4 MB
Tabbar.s01e08.birha.720p.sony.web-dl.aac2.0.x264-Full4Movies.mkv445.5 MB

Alternative Torrents for 'Tabbar Full Season EP TO Hindi AAC DD'.

TORRENT NAMEADDEDSIZESEEDSPEERSHEALTH
10/25/2021991 MB81
10/25/20212.9 GB00