13 Hours The Secret Soldiers Of Benghazi (2016) H264 Ita Eng Sub Ita Eng ICV-MIRCrew

Torrent Details


13 Hours The Secret Soldiers of Benghazi <span style=color:#777>(2016)</span> H264 ita eng sub ita eng iCV<span style=color:#fc9c6d>-MIRCrew</span>

NAME
13 Hours The Secret Soldiers of Benghazi (2016) H264 ita eng sub ita eng iCV-MIRCrew.torrent
CATEGORY
Movies
INFOHASH
2f16b038f68c23823d1b1db7def1aca9703113c0
SIZE
2 GB in 1 file
ADDED
Uploaded on 12-08-2016 by our crawler pet called "Spidey".
SWARM
0 seeders & 0 peers
RATING
No votes yet.

Please login to vote for this torrent.


Description

13 Hours: The Secret Soldiers of Benghazi (2016).H264.Italian.English.Ac3.5.1.sub.ita.eng.iCV-MIRCrew



NO FOUND ONLY ORIGINAL RELEASE

My release is always in double track audio italian and Original audio
for select it use VLC or dvd player home
not use wmp

13 Hours - The Secret Soldiers of Benghazi (2016)







Titolo originale 13 Hours: The Secret Soldiers of Benghazi
Lingua originale inglese
Paese di produzione Stati Uniti d'America
Anno 2016
Durata 144 min
Rapporto 2.35 : 1
Genere drammatico, azione
Regia Michael Bay
Soggetto Mitchell Zuckoff (libro)
Sceneggiatura Chuck Hogan
Produttore Erwin Stoff, Michael Bay
Produttore esecutivo Scott Gardenhour, Richard Abate
Casa di produzione 3 Arts Entertainment, Latina Pictures, Paramount Pictures
Distribuzione (Italia) Universal Pictures
Fotografia Dion Beebe
Montaggio Pietro Scalia, Calvin Wimmer
Effetti speciali Peter Haran
Musiche Lorne Balfe
Scenografia Jeffrey Beecroft
Costumi Deborah Lynn Scott
Trucco Chantal Busuttil, Karen Schembri Grima, Jeremy Woodhead




James Badge Dale: Tyrone "Rone" Woods
John Krasinski: Jack da Silva
Max Martini: Mark "Oz" Geist
Dominic Fumusa: John "Tig" Tiegen
Pablo Schreiber: Kris "Tanto" Paronto
David Denman: Dave "Boon" Benton
Matthew Letscher: ambasciatore Chris Stevens
Toby Stephens: Glen "Bub" Doherty
Alexia Barlier: Sona Jillani
Freddie Stroma: Brit Vayner
David Costabile: Bob
Peyman Moaadi: Amahl
Christopher Dingli: Sean Smith
Demetrius Grosse: Dave Ubben
David Giuntoli: Scott Wickland
David Furr: Alec
Mike Moriarty: Vincent
Wrenn Schmidt: Becky Silva
Ivy George: Emily Silva
Julia Butters: Beverly Silva




Durante la sera dell'11 settembre 2012, undicesimo anniversario degli attacchi dell'11 settembre, un gruppo di militanti islamisti attacca dapprima un accostamento diplomatico americano e successivamente una dépendance della CIA a Benghazi in Libia. Una squadra di sicurezza composta da sei membri lotta per difendere gli americani, ma................



During an attack on a U.S. compound in Libya, a security team struggles to make sense out of the chaos.











[spoiler]
General
Unique ID : 216856242164919275425343964734353563714 (0xA324FE37F3E5A272B44E545BA04BE042)
Complete name : 13 Hours The Secret Soldiers of Benghazi (2016).H264.ita.eng.sub.ita.eng.iCV-MIRCrew.mkv
Format : Matroska
Format version : Version 2
File size : 2.04 GiB
Duration : 2h 18mn
Overall bit rate : 2 110 Kbps
Movie name : 13_HOURS_THE_SECRET_SOLDIERS_OF_.Title17
Encoded date : UTC 2016-08-05 16:05:13
Writing application : DVDFab 9.1.5.7
Writing library : libebml v0.7.8 + libmatroska v0.8.1

Video
ID : 1
Format : AVC
Format/Info : Advanced Video Codec
Format profile : [email protected]/* */
Format settings, CABAC : Yes
Format settings, ReFrames : 2 frames
Codec ID : V_MPEG4/ISO/AVC
Duration : 2h 18mn
Bit rate : 1 172 Kbps
Width : 720 pixels
Height : 300 pixels
Display aspect ratio : 2.40:1
Frame rate : 25.000 fps
Color space : YUV
Chroma subsampling : 4:2:0
Bit depth : 8 bits
Scan type : Progressive
Bits/(Pixel*Frame) : 0.217
Stream size : 1.13 GiB (56%)
Writing library : x264 core
Default : Yes
Forced : No
Color primaries : BT.601-6 525, BT.1358 525, BT.1700 NTSC, SMPTE 170M
Transfer characteristics : BT.709-5, BT.1361
Matrix coefficients : BT.601-6 525, BT.1358 525, BT.1700 NTSC, SMPTE 170M

Audio #1
ID : 2
Format : AC-3
Format/Info : Audio Coding 3
Mode extension : CM (complete main)
Codec ID : A_AC3
Duration : 2h 18mn
Bit rate mode : Constant
Bit rate : 448 Kbps
Channel(s) : 6 channels
Channel positions : Front: L C R, Side: L R, LFE
Sampling rate : 48.0 KHz
Bit depth : 16 bits
Compression mode : Lossy
Stream size : 444 MiB (21%)
Language : Italian
Default : Yes
Forced : No

Audio #2
ID : 3
Format : AC-3
Format/Info : Audio Coding 3
Mode extension : CM (complete main)
Codec ID : A_AC3
Duration : 2h 18mn
Bit rate mode : Constant
Bit rate : 448 Kbps
Channel(s) : 6 channels
Channel positions : Front: L C R, Side: L R, LFE
Sampling rate : 48.0 KHz
Bit depth : 16 bits
Compression mode : Lossy
Stream size : 444 MiB (21%)
Language : English
Default : No
Forced : No

Text #1
ID : 4
Format : VobSub
Codec ID : S_VOBSUB
Codec ID/Info : The same subtitle format used on DVDs
Language : English
Default : Yes
Forced : No

Text #2
ID : 5
Format : VobSub
Codec ID : S_VOBSUB
Codec ID/Info : The same subtitle format used on DVDs
Language : Italian
Default : No
Forced : No

Text #3
ID : 6
Format : VobSub
Codec ID : S_VOBSUB
Codec ID/Info : The same subtitle format used on DVDs
Language : Italian
Default : No
Forced : No

Menu
00:00:00.000 : en:(01)00:00:00:000
00:04:35.120 : en:(02)00:04:35:120
00:08:38.600 : en:(03)00:08:38:600
00:14:52.640 : en:(04)00:14:52:640
00:20:19.360 : en:(05)00:20:19:360
00:25:42.120 : en:(06)00:25:42:120
00:30:04.880 : en:(07)00:30:04:880
00:32:54.920 : en:(08)00:32:54:920
00:37:58.040 : en:(09)00:37:58:040
00:45:16.080 : en:(10)00:45:16:080
00:51:45.600 : en:(11)00:51:45:600
00:59:53.480 : en:(12)00:59:53:480
01:07:10.400 : en:(13)01:07:10:400
01:19:37.640 : en:(14)01:19:37:640
01:23:36.080 : en:(15)01:23:36:080
01:30:56.840 : en:(16)01:30:56:840
01:38:23.440 : en:(17)01:38:23:440
01:43:41.640 : en:(18)01:43:41:640
01:49:06.880 : en:(19)01:49:06:880
01:55:26.280 : en:(20)01:55:26:280
02:02:05.800 : en:(21)02:02:05:800
02:12:44.480 : en:(22)02:12:44:480
02:18:32.200 : en:(23)02:18:32:200


[/spoiler]



 

Discussion

Comments 0

Post Your Comment

Files in this torrent

FILENAMESIZE
13 Hours The Secret Soldiers of Benghazi (2016).H264.ita.eng.sub.ita.eng.iCV-MIRCrew.mkv2 GB

Alternative Torrents for 'Hours Secret Soldiers of Benghazi eng sub eng iCV'.

TORRENT NAMEADDEDSIZESEEDSPEERSHEALTH
8/12/20162 GB00