Salo Or The 120 Days Of Sodom 1975 REMASTERED 1080p BluRay X264-SADPANDA[PRiME]

Torrent Details


Salo or the 120 Days of Sodom 1975 REMASTERED 1080p BluRay x264-SADPANDA[PRiME]

NAME
Salo or the 120 Days of Sodom 1975 REMASTERED 1080p BluRay x264-SADPANDA[PRiME].torrent
CATEGORY
Movies
INFOHASH
c5295d8ae075c59575a2bcfb915fed6f9e245f59
SIZE
10.9 GB in 3 files
ADDED
Uploaded on 29-12-2016 by our crawler pet called "Spidey".
SWARM
0 seeders & 0 peers
RATING
No votes yet.

Please login to vote for this torrent.


Description


Salo.or.the.120.Days.of.Sodom.1975.REMASTERED.1080p.BluRay.x264-SADPANDA[PRiME]

ImDb: http://www.imdb.com/title/tt0073650



Complete name : Salo.or.the.120.Days.of.Sodom.1975.REMASTERED.1080p.BluRay.x264-SADPANDA[PRiME].mkv
Format : Matroska
Format version : Version 4 / Version 2
File size : 10.9 GiB
Duration : 1 h 56 min
Overall bit rate mode : Variable
Overall bit rate : 13.4 Mb/s
Encoded date : UTC 2016-12-24 14:12:32
Writing application : mkvmerge v9.6.0 ('Slave To Your Mind') 64bit
Writing library : libebml v1.3.4 + libmatroska v1.4.5

Video
ID : 1
Format : AVC
Format/Info : Advanced Video Codec
Format profile : [email protected]/* */
Format settings, CABAC : Yes
Format settings, ReFrames : 4 frames
Codec ID : V_MPEG4/ISO/AVC
Duration : 1 h 56 min
Bit rate : 12.7 Mb/s
Width : 1 920 pixels
Height : 1 040 pixels
Display aspect ratio : 1.85:1
Frame rate mode : Constant
Frame rate : 23.976 (24000/1001) FPS
Color space : YUV
Chroma subsampling : 4:2:0
Bit depth : 8 bits
Scan type : Progressive
Bits/(Pixel*Frame) : 0.265
Stream size : 10.3 GiB (95%)
Writing library : x264 core 148 r2744 b97ae06
Encoding settings : cabac=1 / ref=4 / deblock=1:-3:-3 / analyse=0x3:0x133 / me=umh / subme=9 / psy=1 / psy_rd=1.00:0.25 / mixed_ref=1 / me_range=24 / chroma_me=1 / trellis=1 / 8x8dct=1 / cqm=0 / deadzone=21,11 / fast_pskip=1 / chroma_qp_offset=-4 / threads=24 / lookahead_threads=2 / sliced_threads=0 / nr=0 / decimate=1 / interlaced=0 / bluray_compat=0 / constrained_intra=0 / bframes=3 / b_pyramid=2 / b_adapt=2 / b_bias=0 / direct=3 / weightb=1 / open_gop=0 / weightp=2 / keyint=240 / keyint_min=24 / scenecut=40 / intra_refresh=0 / rc_lookahead=60 / rc=2pass / mbtree=1 / bitrate=12671 / ratetol=1.0 / qcomp=0.60 / qpmin=0 / qpmax=69 / qpstep=4 / cplxblur=20.0 / qblur=0.5 / ip_ratio=1.40 / aq=1:0.75
Default : Yes
Forced : No

Audio #1
ID : 2
Format : FLAC
Format/Info : Free Lossless Audio Codec
Codec ID : A_FLAC
Duration : 1 h 56 min
Bit rate mode : Variable
Bit rate : 537 kb/s
Channel(s) : 1 channel
Channel positions : Front: C
Sampling rate : 48.0 kHz
Frame rate : 11.719 FPS (4096 spf)
Bit depth : 24 bits
Stream size : 448 MiB (4%)
Writing library : libFLAC 1.2.1 (UTC 2007-09-17)
Language : Italian
Default : Yes
Forced : No

Audio #2
ID : 3
Format : AC-3
Format/Info : Audio Coding 3
Mode extension : CM (complete main)
Format settings, Endianness : Big
Codec ID : A_AC3
Duration : 1 h 56 min
Bit rate mode : Constant
Bit rate : 192 kb/s
Channel(s) : 1 channel
Channel positions : Front: C
Sampling rate : 48.0 kHz
Frame rate : 31.250 FPS (1536 spf)
Compression mode : Lossy
Stream size : 160 MiB (1%)
Language : English
Default : No
Forced : No

Text #1
ID : 4
Format : UTF-8
Codec ID : S_TEXT/UTF8
Codec ID/Info : UTF-8 Plain Text
Duration : 1 h 56 min
Bit rate : 36 b/s
Count of elements : 934
Stream size : 31.0 KiB (0%)
Title : English subtitles for Italian audio
Language : English
Default : Yes
Forced : No

Text #2
ID : 5
Format : UTF-8
Codec ID : S_TEXT/UTF8
Codec ID/Info : UTF-8 Plain Text
Duration : 1 h 56 min
Bit rate : 0 b/s
Count of elements : 8
Stream size : 163 Bytes (0%)
Title : English subtitles for English audio
Language : English
Default : No
Forced : No

Menu
00:00:00.000 : en:00:00:00.000
00:04:44.701 : en:00:04:44.701
00:09:11.551 : en:00:09:11.551
00:13:41.654 : en:00:13:41.654
00:19:57.571 : en:00:19:57.571
00:23:29.742 : en:00:23:29.742
00:28:34.129 : en:00:28:34.129
00:33:40.101 : en:00:33:40.101
00:39:59.689 : en:00:39:59.689
00:43:58.553 : en:00:43:58.553
00:47:01.944 : en:00:47:01.944
00:54:01.280 : en:00:54:01.280
00:56:51.199 : en:00:56:51.199
01:05:01.523 : en:01:05:01.523
01:09:38.424 : en:01:09:38.424
01:15:36.323 : en:01:15:36.323
01:21:17.206 : en:01:21:17.206
01:27:05.011 : en:01:27:05.011
01:33:15.465 : en:01:33:15.465
01:36:44.632 : en:01:36:44.632
01:40:31.234 : en:01:40:31.234
01:46:31.760 : en:01:46:31.760
01:49:19.762 : en:01:49:19.762





Discussion

Comments 0

Post Your Comment

Files in this torrent

FILENAMESIZE
Please Support!! Read More!!!.txt232 B
Salo.or.the.120.Days.of.Sodom.1975.REMASTERED.1080p.BluRay.x264-SADPANDA[PRiME].mkv10.9 GB
Subs/salo.or.the.120.days.of.sodom.1975.remastered.1080p.bluray.x264-sadpanda_subs.rar-missing0 B

Alternative Torrents for 'Salo or Days of Sodom REMASTERED BluRay SADPANDAPRiME'.

TORRENT NAMEADDEDSIZESEEDSPEERSHEALTH
10/18/20201.2 GB962154
10/14/20202 GB912182
10/18/20202.4 GB847131
10/16/2020797 MB79396
10/9/20201.9 GB793150
10/14/20201004 MB78568
10/20/20201.4 GB74157
10/12/2020586 MB73659
10/19/2020253 MB54098
10/12/2020285 MB49932
10/17/20202.5 GB38895
Yesterday11.7 GB3741226
10/12/2020987 MB371102
10/16/202025 GB35873
10/19/2020880 MB34971