Elementary S04 480i DVD REMUX MPEG-2 DD 5.1

Torrent Details

Elementary S04 480i DVD REMUX MPEG-2 DD 5.1

NAME
Elementary S04 480i DVD REMUX MPEG-2 DD 5.1.torrent
CATEGORY
Television
INFOHASH
7a26cd30734dc2faa2703950645ea6207e58e4ba
SIZE
37.3 GB in 24 files
ADDED
Uploaded on 13-01-2017 by our crawler pet called "Spidey".
SWARM
0 seeders & 0 peers
RATING
No votes yet.

Please login to vote for this torrent.


Description

General
Unique ID : 67141718524648367996326608547916620648 (0x3283064DA7B99A446C698D3BBF9D2368)
Complete name : Elementary.S04E01.The.Past.Is.Parent.480i.DVD.REMUX.MPEG-2.DD5.1.mkv
Format : Matroska
Format version : Version 2
File size : 1.61 GiB
Duration : 43 min 6 s
Overall bit rate mode : Variable
Overall bit rate : 5 355 kb/s
Encoded date : UTC 2017-01-11 19:25:04
Writing application : MakeMKV v1.10.4 darwin(x86-release)
Writing library : libmakemkv v1.10.4 (1.3.3/1.4.4) darwin(x86-release)
Original source medium : DVD-Video

Video
ID : 1
ID in the original source medium : 224 (0xE0)
Format : MPEG Video
Format version : Version 2
Format profile : [email protected]/* */
Format settings, BVOP : Yes
Format settings, Matrix : Custom
Format settings, GOP : Variable
Format settings, picture structure : Frame
Codec ID : V_MPEG2
Codec ID/Info : MPEG 1 or 2 Video
Duration : 43 min 6 s
Bit rate mode : Variable
Bit rate : 4 894 kb/s
Maximum bit rate : 9 800 kb/s
Width : 720 pixels
Height : 480 pixels
Display aspect ratio : 16:9
Frame rate mode : Constant
Frame rate : 29.970 (30000/1001) FPS
Standard : NTSC
Color space : YUV
Chroma subsampling : 4:2:0
Bit depth : 8 bits
Scan type : Interlaced
Scan order : Top Field First
Compression mode : Lossy
Bits/(Pixel*Frame) : 0.472
Time code of first frame : 00:59:58;00
Time code source : Group of pictures header
Stream size : 1.47 GiB (91%)
Language : English
Default : No
Forced : No

Audio
ID : 2
ID in the original source medium : 189 (0xBD)-128 (0x80)
Format : AC-3
Format/Info : Audio Coding 3
Mode extension : CM (complete main)
Format settings, Endianness : Big
Codec ID : A_AC3
Duration : 43 min 5 s
Bit rate mode : Constant
Bit rate : 448 kb/s
Channel(s) : 6 channels
Channel positions : Front: L C R, Side: L R, LFE
Sampling rate : 48.0 kHz
Frame rate : 31.250 FPS (1536 spf)
Bit depth : 16 bits
Compression mode : Lossy
Stream size : 138 MiB (8%)
Title : Surround 5.1
Language : English
Default : Yes
Forced : No

Text
ID : 3
ID in the original source medium : 189 (0xBD)-32 (0x20)
Format : VobSub
Codec ID : S_VOBSUB
Codec ID/Info : Picture based subtitle format used on DVDs
Duration : 42 min 29 s
Bit rate : 7 678 b/s
Count of elements : 746
Stream size : 2.33 MiB (0%)
Language : English
Default : Yes
Forced : No

Menu
00:00:00.000 : en:Chapter 01
00:09:45.818 : en:Chapter 02
00:18:04.750 : en:Chapter 03
00:25:43.141 : en:Chapter 04
00:35:42.140 : en:Chapter 05
00:42:37.121 : en:Chapter 06

Discussion

Comments 0

Post Your Comment

Files in this torrent

FILENAMESIZE
Elementary.S04E01.The.Past.Is.Parent.480i.DVD.REMUX.MPEG-2.DD5.1.mkv1.6 GB
Elementary.S04E02.Evidence.of.Things.Not.Seen.480i.DVD.REMUX.MPEG-2.DD5.1.mkv1.6 GB
Elementary.S04E03.Tag.Youre.Me.480i.DVD.REMUX.MPEG-2.DD5.1.mkv1.6 GB
Elementary.S04E04.All.My.Exes.Live.in.Essex.480i.DVD.REMUX.MPEG-2.DD5.1.mkv1.6 GB
Elementary.S04E05.The.Games.Underfoot.480i.DVD.REMUX.MPEG-2.DD5.1.mkv1.5 GB
Elementary.S04E06.The.Cost.of.Doing.Business.480i.DVD.REMUX.MPEG-2.DD5.1.mkv1.6 GB
Elementary.S04E07.Miss.Taken.480i.DVD.REMUX.MPEG-2.DD5.1.mkv1.6 GB
Elementary.S04E08.A.Burden.of.Blood.480i.DVD.REMUX.MPEG-2.DD5.1.mkv1.5 GB
Elementary.S04E09.Murder.Ex.Machina.480i.DVD.REMUX.MPEG-2.DD5.1.mkv1.6 GB
Elementary.S04E10.Alma.Matters.480i.DVD.REMUX.MPEG-2.DD5.1.mkv1.6 GB
Elementary.S04E11.Down.Where.the.Dead.Delight.480i.DVD.REMUX.MPEG-2.DD5.1.mkv1.6 GB
Elementary.S04E12.A.View.With.a.Room.480i.DVD.REMUX.MPEG-2.DD5.1.mkv1.6 GB
Elementary.S04E13.A.Study.in.Charlotte.480i.DVD.REMUX.MPEG-2.DD5.1.mkv1.6 GB
Elementary.S04E14.Who.Is.That.Masked.Man.480i.DVD.REMUX.MPEG-2.DD5.1.mkv1.6 GB
Elementary.S04E15.Up.to.Heaven.and.Down.to.Hell.480i.DVD.REMUX.MPEG-2.DD5.1.mkv1.6 GB
Elementary.S04E16.Hounded.480i.DVD.REMUX.MPEG-2.DD5.1.mkv1.6 GB
Elementary.S04E17.Youve.Got.Me.Whos.Got.You.480i.DVD.REMUX.MPEG-2.DD5.1.mkv1.6 GB
Elementary.S04E18.Ready.or.Not.480i.DVD.REMUX.MPEG-2.DD5.1.mkv1.5 GB
Elementary.S04E19.All.In.480i.DVD.REMUX.MPEG-2.DD5.1.mkv1.6 GB
Elementary.S04E20.Art.Imitates.Art.480i.DVD.REMUX.MPEG-2.DD5.1.mkv1.6 GB
Elementary.S04E21.Aint.Nothing.Like.the.Real.Thing.480i.DVD.REMUX.MPEG-2.DD5.1.mkv1.6 GB
Elementary.S04E22.Turn.It.Upside.Down.480i.DVD.REMUX.MPEG-2.DD5.1.mkv1.3 GB
Elementary.S04E23.The.Invisible.Hand.480i.DVD.REMUX.MPEG-2.DD5.1.mkv1.3 GB
Elementary.S04E24.A.Difference.in.Kind.480i.DVD.REMUX.MPEG-2.DD5.1.mkv1.3 GB

Alternative Torrents for 'Elementary DVD REMUX MPEG DD'.

There are no alternative torrents found.