Forrest Gump (1994) [1080p] [Hindi Audio 2 CH @ 224 Kbps Only] [Dzrg Torrents®]

Torrent Details


Forrest Gump (1994) [1080p] [Hindi Audio 2 CH @ 224 kbps Only] [Dzrg Torrents®]

NAME
Forrest Gump (1994) [1080p] [Hindi Audio 2 CH @ 224 kbps Only] [Dzrg Torrents®].torrent
CATEGORY
Movies
INFOHASH
b62ebcbbe49683e8e8867aa3c80b064b5d1c5366
SIZE
3.6 GB in 5 files
ADDED
Uploaded on 18-01-2017 by our crawler pet called "Spidey".
SWARM
0 seeders & 0 peers
RATING
No votes yet.

Please login to vote for this torrent.


Description

[img=Logo]https://extraimage.net/images/2016/09/11/05560b0c5dd6311b69a22af3c0f3c467.png[/img]
[hr]

[img=Cover]https://s23.postimg.org/8fzlvhcor/Cover_Dzrg_Torrents.jpg[/img]
[font=Impact]Forrest Gump (1994) [1080p] [Hindi Audio 2 CH @ 224 kbps Only] [Dzrg Torrents®].mkv[/font][hr]

[img=Sample]https://extraimage.net/images/2016/10/27/05bc13acf644233de5c61ddecc85d3fa.png[/img]
[font=Impact]Video Sample[/font][hr]

[img=SS]https://extraimage.net/images/2016/04/15/cooltext177388645573770.png[/img]









[hr]

[img=Info]https://extraimage.net/images/2016/04/15/cooltext177388906587027.png[/img]
[font=Impact]

General
Format : Matroska
Format version : Version 4 / Version 2
File size : 3.58 GiB
Duration : 2 h 22 min
Overall bit rate : 3 606 kb/s
Encoded date : UTC 2016-12-25 09:28:37
Writing application : mkvmerge v9.4.2 ('So High') 64bit
Writing library : libebml v1.3.4 + libmatroska v1.4.5
[/font]
[hr]

[img=Video]https://extraimage.net/images/2016/04/15/cooltext177387999960308b032c.png[/img]
[font=Impact]

Video
ID : 1
Format : AVC
Format/Info : Advanced Video Codec
Format profile : [email protected]/* */
Format settings, CABAC : Yes
Format settings, ReFrames : 5 frames
Codec ID : V_MPEG4/ISO/AVC
Duration : 2 h 22 min
Bit rate : 3 380 kb/s
Width : 1 920 pixels
Height : 816 pixels
Display aspect ratio : 2.35:1
Frame rate mode : Constant
Frame rate : 23.976 (24000/1001) FPS
Color space : YUV
Chroma subsampling : 4:2:0
Bit depth : 8 bits
Scan type : Progressive
Bits/(Pixel*Frame) : 0.090
Stream size : 3.36 GiB (94%)
Writing library : x264 core 148 r2694 3b70645
Language : Hindi
Default : Yes
Forced : No

[/font]
[hr]

[img=Audio]https://extraimage.net/images/2016/04/15/cooltext177388371530518.png[/img]
[font=Impact]

Audio
ID : 2
Format : AC-3
Format/Info : Audio Coding 3
Format profile : Dolby Digital
Mode extension : CM (complete main)
Format settings, Endianness : Big
Codec ID : A_AC3
Duration : 2 h 22 min
Bit rate mode : Constant
Bit rate : 224 kb/s
Channel(s) : 2 channels
Channel positions : Front: L R
Sampling rate : 44.1 kHz
Frame rate : 28.711 FPS (1536 spf)
Bit depth : 16 bits
Compression mode : Lossy
Stream size : 228 MiB (6%)
Language : Hindi
Default : Yes
Forced : No
[/font]
[hr]

[font=Impact]
Greets To SaM|Ozi|ExtraTorrent Moderator's|[/font][hr]

[img=Team]https://extraimage.net/images/2016/10/28/336c845fc9193ba6939833eb4d3417be.png[/img]

[font="impact"] Donate By BitCoin- 1GyQhUEz1WWcVAu1Kqoe29thkL1XAB81zL[/font]

Discussion

Comments 0

Post Your Comment

Files in this torrent

FILENAMESIZE
Cover [Dzrg Torrents®].jpg41.1 KB
Forrest Gump (1994) [1080p] [Hindi Audio 2 CH @ 224 kbps Only] [Dzrg Torrents®].mkv3.6 GB
MediaINFO.txt4 KB
Preview [Dzrg Torrents®].mkv20.1 MB
Thumbnails [Dzrg Torrents®].jpg284.2 KB

Alternative Torrents for 'Forrest Gump Hindi Audio Only Dzrg Torrents®'.

TORRENT NAMEADDEDSIZESEEDSPEERSHEALTH
1/18/20173.6 GB00