Wait Until Dark 1967 1080p BluRay X264-AMIABLE[PRiME]

Torrent Details

Wait Until Dark<span style=color:#777> 1967</span> 1080p BluRay X264<span style=color:#fc9c6d>-AMIABLE[PRiME]</span>

NAME
Wait Until Dark 1967 1080p BluRay X264-AMIABLE[PRiME].torrent
CATEGORY
Movies
INFOHASH
92478a37ef733488d5bd289bc2c3ef098eac32ef
SIZE
11 GB in 4 files
ADDED
Uploaded on 25-01-2017 by our crawler pet called "Spidey".
SWARM
0 seeders & 1 peers
RATING
No votes yet.

Please login to vote for this torrent.


Description


Wait.Until.Dark.1967.1080p.BluRay.X264-AMIABLE[PRiME]

ImDb: http://www.imdb.com/title/tt0062467



Complete name : Wait.Until.Dark.1967.1080p.BluRay.X264-AMIABLE[PRiME].mkv
Format : Matroska
Format version : Version 4 / Version 2
File size : 10.9 GiB
Duration : 1 h 47 min
Overall bit rate : 14.5 Mb/s
Encoded date : UTC 2010-02-22 21:41:29
Writing application : no_variable_data
Writing library : no_variable_data

Video
ID : 1
Format : AVC
Format/Info : Advanced Video Codec
Format profile : [email protected]/* */
Format settings, CABAC : Yes
Format settings, ReFrames : 4 frames
Codec ID : V_MPEG4/ISO/AVC
Duration : 1 h 47 min
Bit rate : 13.0 Mb/s
Width : 1 920 pixels
Height : 1 080 pixels
Display aspect ratio : 16:9
Frame rate mode : Constant
Frame rate : 23.976 (24000/1001) FPS
Color space : YUV
Chroma subsampling : 4:2:0
Bit depth : 8 bits
Scan type : Progressive
Bits/(Pixel*Frame) : 0.262
Stream size : 9.58 GiB (88%)
Writing library : x264 core 148 r2744 b97ae06
Encoding settings : cabac=1 / ref=4 / deblock=1:-3:-3 / analyse=0x3:0x113 / me=umh / subme=8 / psy=1 / psy_rd=1.15:0.00 / mixed_ref=1 / me_range=32 / chroma_me=1 / trellis=1 / 8x8dct=1 / cqm=0 / deadzone=21,11 / fast_pskip=1 / chroma_qp_offset=-2 / threads=24 / lookahead_threads=4 / sliced_threads=0 / nr=0 / decimate=1 / interlaced=0 / bluray_compat=0 / constrained_intra=0 / bframes=3 / b_pyramid=2 / b_adapt=2 / b_bias=0 / direct=3 / weightb=1 / open_gop=0 / weightp=2 / keyint=240 / keyint_min=24 / scenecut=40 / intra_refresh=0 / rc_lookahead=50 / rc=2pass / mbtree=1 / bitrate=13022 / ratetol=1.0 / qcomp=0.60 / qpmin=0 / qpmax=69 / qpstep=4 / cplxblur=20.0 / qblur=0.5 / ip_ratio=1.40 / aq=3:0.75
Default : Yes
Forced : No
Statistics Tags Issue : no_variable_data 1970-01-01 00:00:00 / no_variable_data 2010-02-22 21:41:29
FromStats_BitRate : 13019966
FromStats_Duration : 01:47:41.455000000
FromStats_FrameCount : 154920
FromStats_StreamSize : 10515991030

Audio
ID : 2
Format : DTS
Format/Info : Digital Theater Systems
Mode : 16
Format settings, Endianness : Big
Codec ID : A_DTS
Duration : 1 h 47 min
Bit rate mode : Constant
Bit rate : 1 509 kb/s
Channel(s) : 2 channels
Channel positions : Front: L R
Sampling rate : 48.0 kHz
Frame rate : 93.750 FPS (512 spf)
Bit depth : 24 bits
Compression mode : Lossy
Stream size : 1.14 GiB (10%)
Language : English
Default : Yes
Forced : No
Statistics Tags Issue : no_variable_data 1970-01-01 00:00:00 / no_variable_data 2010-02-22 21:41:29
FromStats_BitRate : 1508999
FromStats_Duration : 01:47:41.483000000
FromStats_FrameCount : 605764
FromStats_StreamSize : 1218797168

Text #1
ID : 3
Format : UTF-8
Codec ID : S_TEXT/UTF8
Codec ID/Info : UTF-8 Plain Text
Language : English
Default : No
Forced : No
Statistics Tags Issue : no_variable_data 1970-01-01 00:00:00 / no_variable_data 2010-02-22 21:41:29
FromStats_BitRate : 54
FromStats_Duration : 01:47:09.047000000
FromStats_FrameCount : 1795
FromStats_StreamSize : 43824

Text #2
ID : 4
Format : UTF-8
Codec ID : S_TEXT/UTF8
Codec ID/Info : UTF-8 Plain Text
Title : SDH
Language : English
Default : No
Forced : No
Statistics Tags Issue : no_variable_data 1970-01-01 00:00:00 / no_variable_data 2010-02-22 21:41:29
FromStats_BitRate : 57
FromStats_Duration : 01:47:09.047000000
FromStats_FrameCount : 1939
FromStats_StreamSize : 46134

Menu
00:00:00.000 : en:00:00:00.000
00:05:35.752 : en:00:05:35.752
00:09:41.289 : en:00:09:41.289
00:14:50.515 : en:00:14:50.515
00:18:29.108 : en:00:18:29.108
00:21:45.554 : en:00:21:45.554
00:26:26.126 : en:00:26:26.126
00:29:56.837 : en:00:29:56.837
00:33:48.777 : en:00:33:48.777
00:38:33.937 : en:00:38:33.937
00:43:29.982 : en:00:43:29.982
00:45:58.756 : en:00:45:58.756
00:49:12.449 : en:00:49:12.449
00:54:26.972 : en:00:54:26.972
00:57:44.836 : en:00:57:44.836
01:03:46.614 : en:01:03:46.614
01:07:32.799 : en:01:07:32.799
01:12:42.567 : en:01:12:42.567
01:17:58.132 : en:01:17:58.132
01:21:27.549 : en:01:21:27.549
01:25:31.585 : en:01:25:31.585
01:29:13.932 : en:01:29:13.932
01:31:11.883 : en:01:31:11.883
01:35:43.404 : en:01:35:43.404
01:38:15.181 : en:01:38:15.181
01:41:44.932 : en:01:41:44.932
01:43:45.594 : en:01:43:45.594
01:46:03.357 : en:01:46:03.357





Discussion

Comments 0

Post Your Comment

Files in this torrent

FILENAMESIZE
Please Support!! Read More!!!.txt232 B
Sample/wait.until.dark.1967.1080p.bluray.x264-amiable.sample[PRiME].mkv113.3 MB
wait.until.dark.1967.1080p.bluray.x264-amiable.jpg4.3 KB
Wait.Until.Dark.1967.1080p.BluRay.X264-AMIABLE[PRiME].mkv10.9 GB

Alternative Torrents for 'Wait Until Dark BluRay'.

TORRENT NAMEADDEDSIZESEEDSPEERSHEALTH
4/22/20181.7 GB135
4/22/2018889 MB60
12/19/201910.9 GB20
10/14/20201.7 GB01
4/6/20172.1 GB00
1/25/201711 GB01