18+ Elder Island 2016 UNCENSORED English Movies HDRip XviD AAC New Source With Sample ☻rDX☻

Torrent Details


18+ Elder Island 2016 UNCENSORED English Movies HDRip XviD AAC New Source with Sample ☻rDX☻

NAME
18+ Elder Island 2016 UNCENSORED English Movies HDRip XviD AAC New Source with Sample ☻rDX☻.torrent
CATEGORY
Movies
INFOHASH
d7ea4ebbe1e9e3128e216d92f78efe5964c72d30
SIZE
705 MB in 2 files
ADDED
Uploaded on 08-02-2017 by our crawler pet called "Spidey".
SWARM
0 seeders & 0 peers
RATING
This torrent has a bad rating! This torrent has BAD rating with 0 votes.

Please login to vote for this torrent.


Description

18+ Elder Island 2016 UNCENSORED English Movies HDRip XviD AAC New Source with Sample ☻rDX☻ =====================================================

SCREEN SHOTS:



or

http://postimage.co.nr/2017/2/honda/1.html

Format : Matroska
Format version : Version 4 / Version 2
File size : 698 MiB
Duration : 1 h 20 min
Overall bit rate mode : Constant
Overall bit rate : 1 213 kb/s
Movie name : 18+ Elder Island 2016 UNCENSORED English Movies HDRip XviD AAC New Source ☻rDX☻

Video
ID : 2
Format : AVC
Format/Info : Advanced Video Codec
Format profile : [email protected]
Format settings, CABAC : Yes
Format settings, ReFrames : 2 frames
Format settings, GOP : M=1, N=12
Codec ID : V_MPEG4/ISO/AVC
Duration : 1 h 20 min
Bit rate mode : Constant
Bit rate : 766 kb/s
Width : 720 pixels
Height : 304 pixels
Display aspect ratio : 2.35:1
Frame rate mode : Constant
Frame rate : 23.976 (23976/1000) FPS
Color space : YUV
Chroma subsampling : 4:2:0
Bit depth : 8 bits
Scan type : Progressive
Bits/(Pixel*Frame) : 0.146
Stream size : 426 MiB (61%)
Title : ☻rDX☻
Default : Yes
Forced : No

Audio
ID : 1
Format : AC-3
Format/Info : Audio Coding 3
Mode extension : CM (complete main)
Format settings, Endianness : Big
Codec ID : A_AC3
Duration : 1 h 20 min
Bit rate mode : Constant
Bit rate : 448 kb/s
Channel(s) : 2 channels
Channel positions : Front: L R
Sampling rate : 48.0 kHz
Frame rate : 31.250 FPS (1536 spf)
Bit depth : 16 bits
Compression mode : Lossy
Stream size : 258 MiB (37%)
Title : ☻rDX☻
Default : Yes
Forced : No



IMDB : http://www.imdb.com/title/tt4563460

Discussion

Comments 0

Post Your Comment

Files in this torrent

FILENAMESIZE
18+ Elder Island 2016 UNCENSORED English Movies HDRip XviD AAC New Source ☻rDX☻.mkv698.2 MB
Sample ~ 18+ Elder Island 2016 UNCENSORED English Movies HDRip XviD AAC New Source ☻rDX☻.mkv7 MB

Alternative Torrents for 'Elder Island UNCENSORED English Movies AAC Source with Sample ☻rDX☻'.

TORRENT NAMEADDEDSIZESEEDSPEERSHEALTH
2/8/2017705 MB00