Shimmer And Shine S02E28 Masquerade Charade E29 The Silent Treatment 1080p NICK WEBRip AAC2.0 X264-RnC

Torrent Details


Shimmer and Shine S02E28 Masquerade Charade E29 The Silent Treatment 1080p NICK WEBRip AAC2.0 x264-RnC

NAME
Shimmer and Shine S02E28 Masquerade Charade E29 The Silent Treatment 1080p NICK WEBRip AAC2.0 x264-RnC.torrent
CATEGORY
Television
INFOHASH
334b403c94af324978d7bdae2870c6b34a39b16d
SIZE
697 MB in 1 file
ADDED
Uploaded on 13-02-2017 by our crawler pet called "Spidey".
SWARM
0 seeders & 0 peers
RATING
No votes yet.

Please login to vote for this torrent.


Description

Masquerade Charade / The Silent Treatment
Released Jan 27, 2017

Leah, Shimmer, and Shine attend a party at Samira's palace. Zeta crashes the party pretending to be Samira. Zeta uses a potion to swap Leah's voice with a bird's. Will Shimmer and Shine understand Leah's tweets?

General
Unique ID : 240298359434297024765132322075231356952 (0xB4C7C7D58B1D6E02AD983EB6DFEF8818)
Complete name : Shimmer.and.Shine.S02E28.Masquerade.Charade.E29.The.Silent.Treatment.1080p.NICK.WEBRip.AAC2.0.x264-RnC.mkv
Format : Matroska
Format version : Version 4 / Version 2
File size : 697 MiB
Duration : 22 min 30 s
Overall bit rate : 4 326 kb/s
Movie name : RnC | Shimmer.and.Shine.S02E28.Masquerade.Charade.E29.The.Silent.Treatment
Encoded date : UTC 2017-02-13 09:37:46
Writing application : mkvmerge v9.8.0 ('Kuglblids') 64bit
Writing library : libebml v1.3.4 + libmatroska v1.4.5

Video
ID : 1
Format : AVC
Format/Info : Advanced Video Codec
Format profile : [email protected]/* */
Format settings, CABAC : Yes
Format settings, ReFrames : 4 frames
Codec ID : V_MPEG4/ISO/AVC
Duration : 22 min 30 s
Bit rate : 4 195 kb/s
Width : 1 920 pixels
Height : 1 080 pixels
Display aspect ratio : 16:9
Frame rate mode : Constant
Frame rate : 23.976 FPS
Color space : YUV
Chroma subsampling : 4:2:0
Bit depth : 8 bits
Scan type : Progressive
Bits/(Pixel*Frame) : 0.084
Stream size : 676 MiB (97%)
Writing library : x264 core 148
Encoding settings : cabac=1 / ref=4 / deblock=1:0:0 / analyse=0x3:0x113 / me=umh / subme=10 / psy=1 / psy_rd=1.00:0.15 / mixed_ref=1 / me_range=32 / chroma_me=1 / trellis=2 / 8x8dct=1 / cqm=0 / deadzone=21,11 / fast_pskip=1 / chroma_qp_offset=-3 / threads=24 / lookahead_threads=6 / sliced_threads=0 / nr=0 / decimate=1 / interlaced=0 / bluray_compat=0 / constrained_intra=0 / bframes=3 / b_pyramid=0 / b_adapt=2 / b_bias=0 / direct=3 / weightb=1 / open_gop=0 / weightp=2 / keyint=48 / keyint_min=4 / scenecut=0 / intra_refresh=0 / rc_lookahead=48 / rc=crf / mbtree=1 / crf=19.0 / qcomp=0.75 / qpmin=10 / qpmax=51 / qpstep=4 / vbv_maxrate=5000 / vbv_bufsize=10000 / crf_max=0.0 / nal_hrd=none / filler=0 / ip_ratio=1.40 / aq=1:0.80
Language : English
Default : Yes
Forced : No

Audio
ID : 2
Format : AAC
Format/Info : Advanced Audio Codec
Format profile : LC
Codec ID : A_AAC
Duration : 22 min 30 s
Bit rate : 128 kb/s
Channel(s) : 2 channels
Channel positions : Front: L R
Sampling rate : 48.0 kHz
Frame rate : 46.875 FPS (1024 spf)
Compression mode : Lossy
Stream size : 20.6 MiB (3%)
Language : English
Default : Yes
Forced : No

Text
ID : 3
Format : UTF-8
Codec ID : S_TEXT/UTF8
Codec ID/Info : UTF-8 Plain Text
Duration : 21 min 57 s
Bit rate : 115 b/s
Count of elements : 528
Stream size : 18.7 KiB (0%)
Language : English
Default : Yes
Forced : No

-RnC

Discussion

Comments 0

Post Your Comment

Files in this torrent

FILENAMESIZE
Shimmer.and.Shine.S02E28.Masquerade.Charade.E29.The.Silent.Treatment.1080p.NICK.WEBRip.AAC2.0.x264-RnC.mkv696.6 MB

Alternative Torrents for 'Shimmer and Shine Masquerade Charade Silent Treatment NICK AAC. RnC'.

There are no alternative torrents found.