24 Legacy S01E03 720p HDTV X264-AVS[PRiME]

Torrent Details

24 Legacy S01E03 720p HDTV x264<span style=color:#fc9c6d>-AVS[PRiME]</span>

NAME
24 Legacy S01E03 720p HDTV x264-AVS[PRiME].torrent
CATEGORY
Television
INFOHASH
0860b7cfb61cdb27bc778f278a6adbbe7389e937
SIZE
1.2 GB in 2 files
ADDED
Uploaded on 14-02-2017 by our crawler pet called "Spidey".
SWARM
0 seeders & 0 peers
RATING
No votes yet.

Please login to vote for this torrent.


Description


24.Legacy.S01E03.720p.HDTV.x264-AVS[PRiME]



Complete name : 24.Legacy.S01E03.720p.HDTV.x264-AVS[PRiME].mkv
Format : Matroska
Format version : Version 4 / Version 2
File size : 1.23 GiB
Duration : 42 min 27 s
Overall bit rate : 4 155 kb/s
Encoded date : UTC 2017-02-14 01:12:41
Writing application : FastLE v3.0.0 - AVS
Writing library : libx264 + libebml + libmatroska + libfastrar

Video
ID : 1
Format : AVC
Format/Info : Advanced Video Codec
Format profile : [email protected]/* */
Format settings, CABAC : Yes
Format settings, ReFrames : 5 frames
Codec ID : V_MPEG4/ISO/AVC
Duration : 42 min 27 s
Bit rate : 3 624 kb/s
Width : 1 280 pixels
Height : 718 pixels
Display aspect ratio : 16:9
Frame rate mode : Constant
Frame rate : 23.976 (24000/1001) FPS
Color space : YUV
Chroma subsampling : 4:2:0
Bit depth : 8 bits
Scan type : Progressive
Bits/(Pixel*Frame) : 0.164
Stream size : 1.07 GiB (87%)
Writing library : x264 core 148 r2744 b97ae06
Encoding settings : cabac=1 / ref=5 / deblock=1:0:0 / analyse=0x3:0x113 / me=hex / subme=8 / psy=1 / psy_rd=1.00:0.00 / mixed_ref=1 / me_range=16 / chroma_me=1 / trellis=2 / 8x8dct=1 / cqm=0 / deadzone=21,11 / fast_pskip=1 / chroma_qp_offset=-2 / threads=22 / lookahead_threads=3 / sliced_threads=0 / nr=0 / decimate=1 / interlaced=0 / bluray_compat=0 / constrained_intra=0 / bframes=3 / b_pyramid=2 / b_adapt=1 / b_bias=0 / direct=3 / weightb=1 / open_gop=0 / weightp=2 / keyint=250 / keyint_min=23 / scenecut=40 / intra_refresh=0 / rc_lookahead=50 / rc=crf / mbtree=1 / crf=18.0 / qcomp=0.60 / qpmin=0 / qpmax=69 / qpstep=4 / ip_ratio=1.40 / aq=1:1.00
Default : Yes
Forced : No
Color range : Limited
Matrix coefficients : BT.709

Audio
ID : 2
Format : AC-3
Format/Info : Audio Coding 3
Mode extension : CM (complete main)
Format settings, Endianness : Big
Codec ID : A_AC3
Duration : 42 min 27 s
Bit rate mode : Constant
Bit rate : 448 kb/s
Channel(s) : 6 channels
Channel positions : Front: L C R, Side: L R, LFE
Sampling rate : 48.0 kHz
Frame rate : 31.250 FPS (1536 spf)
Compression mode : Lossy
Stream size : 136 MiB (11%)
Default : Yes
Forced : No





Discussion

Comments 0

Post Your Comment

Files in this torrent

FILENAMESIZE
24.Legacy.S01E03.720p.HDTV.x264-AVS[PRiME].mkv1.2 GB
Please Support!! Read More!!!.txt232 B

Alternative Torrents for 'Legacy'.

TORRENT NAMEADDEDSIZESEEDSPEERSHEALTH
7/16/20212.1 GB48537
5/6/2022294 MB23149
7/16/20211 GB2218
5/6/2022212 MB19869
5/20/2022252 MB18533
4/28/2022712 MB1857
5/13/2022207 MB18462
5/13/2022244 MB18225
5/6/2022232 MB18058
5/6/2022211 MB17152
5/6/2022210 MB15533
10/1/20212.1 GB1255
5/20/2022251 MB12322
5/20/2022200 MB11146
4/29/2022229 MB11020