20 000 Leagues Under The Sea 1954 1080p BluRay HEVC 10Bits Multi DDS 5 1 -DDR

Torrent Details


20 000 Leagues Under The Sea 1954 1080p BluRay HEVC 10Bits Multi DDS 5 1 -DDR

NAME
20 000 Leagues Under The Sea 1954 1080p BluRay HEVC 10Bits Multi DDS 5 1 -DDR.torrent
CATEGORY
Movies
INFOHASH
50d11b75916729b7a326cde2f13dcf10d55600ce
SIZE
8.9 GB in 3 files
ADDED
Uploaded on 17-02-2017 by our crawler pet called "Spidey".
SWARM
0 seeders & 0 peers
RATING
No votes yet.

Please login to vote for this torrent.


Description




1080p Blu-Ray Rip HEVC10

English DDS 5.1 Audio
French DDS 5.1 Audio

English French Subs

SCREENSHOTS



SPECS


Source: Blu-ray @ HDT

Format : Matroska
File size : 8.91 GiB
Duration : 2 h 7 min
Overall bit rate : 10.0 Mb/s

Video
Format : HEVC
Format profile : Main [email protected]/* */@Main
Bit rate : 9 249 kb/s
Width : 1 920 pixels
Height : 752 pixels
Display aspect ratio : 2.553
Frame rate : 23.976 (24000/1001) FPS
Bit depth : 10 bits
Stream size : 8.21 GiB (92%)
Color primaries : BT.709

Audio #1
Format : AC-3
Bit rate : 384 kb/s
Channel(s) : 6 channels
Bit depth : 16 bits
Stream size : 349 MiB (4%)
Language : English

Audio #2
Format : AC-3
Bit rate : 384 kb/s
Channel(s) : 6 channels
Bit depth : 16 bits
Stream size : 349 MiB (4%)
Language : French

Chapters : YES


SAMPLE Included

A DDR Exclusive Encode

Discussion

Comments 0

Post Your Comment

Files in this torrent

FILENAMESIZE
20 000 Leagues Under The Sea 1954 1080p BluRay HEVC 10Bits Multi DDS 5.1 -DDR.mkv8.9 GB
A DDR Release !!!.txt287 B
sample-20 000 Leagues Under The Sea 1954 1080p BluRay HEVC 10Bits Multi DDS 5.1 -DDR.mkv30.1 MB

Alternative Torrents for 'Leagues Under Sea BluRay HEVC Bits Multi DDS DDR'.

There are no alternative torrents found.