Ride In The Whirlwind (1966)-alE13

Torrent Details

Ride in the Whirlwind (1966)-alE13

NAME
Ride in the Whirlwind (1966)-alE13.torrent
CATEGORY
Movies
INFOHASH
68f3536e5fb73eb20377031eb9765467ecac98b7
SIZE
7.8 GB in 8 files
ADDED
Uploaded on 27-02-2017 by our crawler pet called "Spidey".
SWARM
0 seeders & 0 peers
RATING
No votes yet.

Please login to vote for this torrent.


Description



http://www.imdb.com/title/tt0059653/
http://www.filmweb.pl/film/Nies%C5%82usznie+oskar%C5%BCeni-1966-9162

Plik zawiera sample.

reżyseria: Monte Hellman
scenariusz: Jack Nicholson
gatunek: Western
produkcja: USA
premiera: 23-10-1966
muzyka: Robert Jackson Drasnin
zdjęcia: Gregory Sandor
czas: 1h 22mn

opis:

Three cowboys, mistaken for members of an outlaw gang, are relentlessly pursued by a posse.

Trójka kowbojów, omyłkowo wzięta za przestępców, walczy o życie.






obsada:

Jack Nicholson, Cameron Mitchell, Millie Perkins

dane techniczne:

Ride in the Whirlwind (1966)-alE13.mkv
Format : Matroska
Format version : Version 4 / Version 2
File size : 7.78 GiB
Duration : 1 h 22 min
Overall bit rate : 13.5 Mb/s
Movie name : Ride in the Whirlwind (1966)-alE13
Encoded date : UTC 2017-02-24 23:26:12
Writing application : mkvmerge v7.9.0 ('Birds') 64bit
Writing library : libebml v1.3.1 + libmatroska v1.4.2
Cover : Yes
Attachments : cover.jpg

Video
ID : 1
Format : AVC
Format/Info : Advanced Video Codec
Format profile : [email protected]/* */
Format settings, CABAC : Yes
Format settings, ReFrames : 2 frames
Codec ID : V_MPEG4/ISO/AVC
Duration : 1 h 22 min
Bit rate : 13.1 Mb/s
Width : 1 920 pixels
Height : 1 036 pixels
Display aspect ratio : 1.85:1
Frame rate mode : Constant
Frame rate : 23.976 (24000/1001) FPS
Color space : YUV
Chroma subsampling : 4:2:0
Bit depth : 8 bits
Scan type : Progressive
Bits/(Pixel*Frame) : 0.274
Stream size : 7.52 GiB (97%)
Title : Ride in the Whirlwind (1966)-alE13
Writing library : x264 core 142
Default : Yes
Forced : No
Color range : Limited
Color primaries : BT.709
Transfer characteristics : BT.709
Matrix coefficients : BT.709

Audio #1
ID : 2
Format : AC-3
Format/Info : Audio Coding 3
Mode extension : CM (complete main)
Format settings, Endianness : Big
Codec ID : A_AC3
Duration : 1 h 22 min
Bit rate mode : Constant
Bit rate : 192 kb/s
Channel(s) : 1 channel
Channel positions : Front: C
Sampling rate : 48.0 kHz
Frame rate : 31.250 FPS (1536 spf)
Compression mode : Lossy
Stream size : 113 MiB (1%)
Title : Ride in the Whirlwind (1966)-alE13_AC3
Language : English
Default : No
Forced : No

Audio #2
ID : 4
Format : AC-3
Format/Info : Audio Coding 3
Mode extension : CM (complete main)
Format settings, Endianness : Big
Codec ID : A_AC3
Duration : 1 h 22 min
Bit rate mode : Constant
Bit rate : 256 kb/s
Channel(s) : 2 channels
Channel positions : Front: L R
Sampling rate : 48.0 kHz
Frame rate : 31.250 FPS (1536 spf)
Compression mode : Lossy
Delay relative to video : 14 s 200 ms
Stream size : 150 MiB (2%)
Title : Ride in the Whirlwind (1966)-alE13_AC3
Language : Polish
Default : Yes
Forced : No

Text
ID : 3
Format : UTF-8
Codec ID : S_TEXT/UTF8
Codec ID/Info : UTF-8 Plain Text
Duration : 1 h 19 min
Bit rate : 28 b/s
Count of elements : 594
Stream size : 16.7 KiB (0%)
Title : Ride in the Whirlwind (1966)-alE13
Language : English
Default : No
Forced : No

Discussion

Comments 0

Post Your Comment

Files in this torrent

FILENAMESIZE
info/cover.jpg281.4 KB
info/Nostalgie11.jpg185.8 KB
info/torrent downoloadet from auratorrent.txt93 B
info/torrent downoloadet from immortaltorrent.txt107 B
poster.jpg60.8 KB
Ride in the Whirlwind (1966)-alE13.mkv7.8 GB
Sample.mkv62.4 MB
txt.jpg136.5 KB

Alternative Torrents for 'Ride Whirlwind alE'.

There are no alternative torrents found.