Warning! Do NOT Download Without a VPN!
Your IP Address is .   Location is United States
Your Internet Provider and Government can track your download activities! Hide your IP ADDRESS with a VPN!
We strongly recommend using a VPN service to anonymize your torrent downloads. It's FREE!
START YOUR FREE TRIAL NOW!

Kung Fu Yoga 2017 HC HDRip XviD AC3-EVO[PRiME]

Torrent Details

Kung Fu Yoga 2017 HC HDRip XviD AC3-EVO[PRiME]

NAME
Kung Fu Yoga 2017 HC HDRip XviD AC3-EVO[PRiME].torrent
CATEGORY
Movies
INFOHASH
6ee2aa5700e5cc2d5b365ac8214abb1ed727da0c
SIZE
1.4 GB in 3 files
ADDED
Uploaded on 27-03-2017 by our crawler pet called "Spidey".
SWARM
0 seeders & 0 peers
RATING
No votes yet.

Please login to vote for this torrent.


Description


Kung.Fu.Yoga.2017.HC.HDRip.XviD.AC3-EVO[PRiME]

ImDb: http://www.imdb.com/title/tt4217392



Complete name : Kung.Fu.Yoga.2017.HC.HDRip.XviD.AC3-EVO[PRiME].avi
Format : AVI
Format/Info : Audio Video Interleave
Format profile : OpenDML
Format settings : rec
File size : 1.38 GiB
Duration : 1 h 47 min
Overall bit rate : 1 847 kb/s
Writing application : AVI-Mux GUI 1.17.8.3, Feb 16 201019:42:50

Video
ID : 0
Format : MPEG-4 Visual
Format profile : Advanced [email protected]/* */
Format settings, BVOP : 2
Format settings, QPel : No
Format settings, GMC : No warppoints
Format settings, Matrix : Default (H.263)
Muxing mode : Packed bitstream
Codec ID : XVID
Codec ID/Hint : XviD
Duration : 1 h 47 min
Bit rate : 1 650 kb/s
Width : 720 pixels
Height : 304 pixels
Display aspect ratio : 2.35:1
Frame rate : 24.000 FPS
Color space : YUV
Chroma subsampling : 4:2:0
Bit depth : 8 bits
Scan type : Progressive
Compression mode : Lossy
Bits/(Pixel*Frame) : 0.314
Stream size : 1.24 GiB (89%)
Writing library : XviD 66

Audio
ID : 1
Format : AC-3
Format/Info : Audio Coding 3
Mode extension : CM (complete main)
Format settings, Endianness : Big
Codec ID : 2000
Duration : 1 h 47 min
Bit rate mode : Constant
Bit rate : 192 kb/s
Channel(s) : 2 channels
Channel positions : Front: L R
Sampling rate : 48.0 kHz
Frame rate : 31.250 FPS (1536 spf)
Compression mode : Lossy
Stream size : 147 MiB (10%)
Alignment : Aligned on interleaves
Interleave, duration : 64 ms (1.54 video frames)
Interleave, preload duration : 192 ms
Title : ac3





Discussion

Comments 0

Post Your Comment

Files in this torrent

FILENAMESIZE
Kung.Fu.Yoga.2017.HC.HDRip.XviD.AC3-EVO[PRiME].avi1.4 GB
Please Support!! Read More!!!.txt232 B
Sample/sample[PRiME].avi21.5 MB

Alternative Torrents for 'Kung Fu Yoga AC'.

TORRENT NAME ADDED SIZE SEEDS PEERS HEALTH
3/29/2019 2.1 GB 1 0
7/8/2018 2.1 GB 0 0