Korn - 2005 - See You On The Other Side (24-96)

Torrent Details

Korn - 2005 - See You On The Other Side (24-96)Korn - 2005 - See You On The Other Side (24-96)

NAME
Korn - 2005 - See You On The Other Side (24-96).torrent
CATEGORY
Music
INFOHASH
9db49ac5e9e995e534bca16ba236c2cf31d9ee5a
SIZE
1.7 GB in 21 files
ADDED
Uploaded on 30-03-2017 by our crawler pet called "Spidey".
SWARM
0 seeders & 0 peers
RATING
No votes yet.

Please login to vote for this torrent.


Description

--------------------------------------------------------------------------------
Analyzed: Korn / See You On The Other Side
--------------------------------------------------------------------------------

DR Peak RMS Duration Track
--------------------------------------------------------------------------------
DR10 0.00 dB -13.35 dB 4:12 01-Twisted Transistor
DR12 0.00 dB -14.14 dB 3:23 02-Politics
DR12 0.00 dB -14.25 dB 3:56 03-Hypocrite
DR11 0.00 dB -12.34 dB 3:50 04-Souvenir
DR12 -0.43 dB -15.61 dB 3:45 05-10 Or A 2-Way
DR11 0.00 dB -14.03 dB 4:41 06-Throw Me Away
DR12 0.00 dB -14.31 dB 4:21 07-Love Song
DR13 -1.50 dB -17.93 dB 5:32 08-Open Up
DR10 0.00 dB -12.20 dB 3:25 09-Coming Undone
DR12 0.00 dB -13.78 dB 3:32 10-Getting Off
DR13 0.00 dB -14.93 dB 3:51 11-Liar
DR12 0.00 dB -13.36 dB 3:41 12-For No One
DR10 0.00 dB -13.19 dB 5:17 13-Seen It All
DR12 0.00 dB -18.27 dB 5:11 14-Tearjerker
DR11 0.00 dB -12.13 dB 3:37 15-It's Me Again
DR11 0.00 dB -12.94 dB 3:30 16-Eaten Up Inside
DR11 -0.90 dB -15.00 dB 5:17 17-Last Legal Drug (Le Petit Mort)
DR11 0.00 dB -13.48 dB 3:00 18-Appears
DR12 0.00 dB -14.83 dB 3:24 19-Inside Out
DR11 0.00 dB -14.86 dB 3:25 20-Too Late I'm Dead
--------------------------------------------------------------------------------

Number of tracks: 20
Official DR value: DR12

Samplerate: 96000 Hz
Channels: 2
Bits per sample: 24
Bitrate: 2906 kbps
Codec: FLAC =====================================

Discussion

Comments 0

Post Your Comment

Files in this torrent

FILENAMESIZE
01. Twisted Transistor.flac89.9 MB
02. Politics.flac74.4 MB
03. Hypocrite.flac83.7 MB
04. Souvenir.flac88.2 MB
05. 10 Or A 2-Way.flac77.5 MB
06. Throw Me Away.flac97.6 MB
07. Love Song.flac93.6 MB
08. Open Up.flac108.9 MB
09. Coming Undone.flac74.8 MB
10. Getting Off.flac78.9 MB
11. Liar.flac83.7 MB
12. For No One.flac82.4 MB
13. Seen It All.flac107.7 MB
14. Tearjerker.flac98.7 MB
15. It's Me Again.flac81 MB
16. Eaten Up Inside.flac76.4 MB
17. Last Legal Drug (Le Petit Mort).flac108.3 MB
18. Appears.flac65.7 MB
19. Inside Out.flac75.8 MB
20. Too Late I'm Dead.flac71.1 MB
foo_dr.txt1.9 KB

Alternative Torrents for 'Korn See You Other Side'.

TORRENT NAMEADDEDSIZESEEDSPEERSHEALTH
9/3/20201.7 GB00
3/30/20171.7 GB00
6/16/20151.7 GB00
6/4/2011145 MB00