Wait Until Dark 1967 720p BluRay X264-x0r[PRiME]

Torrent Details

Wait Until Dark<span style=color:#777> 1967</span> 720p BluRay x264-x0r[PRiME]

NAME
Wait Until Dark 1967 720p BluRay x264-x0r[PRiME].torrent
CATEGORY
Movies
INFOHASH
7dd3bba96fbabb9f90458a24cf971506c207d140
SIZE
2.1 GB in 5 files
ADDED
Uploaded on 06-04-2017 by our crawler pet called "Spidey".
SWARM
0 seeders & 0 peers
RATING
No votes yet.

Please login to vote for this torrent.


Description


Wait.Until.Dark.1967.720p.BluRay.x264-x0r[PRiME]

ImDb: http://www.imdb.com/title/tt0062467



Complete name : Wait.Until.Dark.1967.720p.BluRay.x264-x0r[TRAILER-Theatrical Trailer][PRiME].mp4
Format : MPEG-4
Format profile : Base Media / Version 2
Codec ID : mp42 (isom/mp42)
File size : 19.7 MiB
Duration : 2 min 34 s
Overall bit rate mode : Variable
Overall bit rate : 1 071 kb/s
Encoded date : UTC 2016-08-14 05:18:59
Tagged date : UTC 2016-08-14 05:18:59
gsst : 0
gstd : 154435

Video
ID : 1
Format : AVC
Format/Info : Advanced Video Codec
Format profile : [email protected]/* */
Format settings, CABAC : Yes
Format settings, ReFrames : 3 frames
Codec ID : avc1
Codec ID/Info : Advanced Video Coding
Duration : 2 min 34 s
Duration_LastFrame : -32 ms
Bit rate : 943 kb/s
Width : 1 280 pixels
Height : 720 pixels
Display aspect ratio : 16:9
Frame rate mode : Constant
Frame rate : 29.970 (30000/1001) FPS
Color space : YUV
Chroma subsampling : 4:2:0
Bit depth : 8 bits
Scan type : Progressive
Bits/(Pixel*Frame) : 0.034
Stream size : 17.3 MiB (88%)
Title : ISO Media file produced by Google Inc.
Encoded date : UTC 2016-08-14 05:18:59
Tagged date : UTC 2016-08-14 05:18:59

Audio
ID : 2
Format : AAC
Format/Info : Advanced Audio Codec
Format profile : LC
Codec ID : 40
Duration : 2 min 34 s
Bit rate mode : Variable
Bit rate : 126 kb/s
Channel(s) : 2 channels
Channel positions : Front: L R
Sampling rate : 44.1 kHz
Frame rate : 43.066 FPS (1024 spf)
Compression mode : Lossy
Stream size : 2.31 MiB (12%)
Title : ISO Media file produced by Google Inc.
Encoded date : UTC 2016-08-14 05:18:59
Tagged date : UTC 2016-08-14 05:18:59





Discussion

Comments 0

Post Your Comment

Files in this torrent

FILENAMESIZE
Please Support!! Read More!!!.txt232 B
Wait.Until.Dark.1967.720p.BluRay.x264-x0r.fanart.jpg240.2 KB
Wait.Until.Dark.1967.720p.BluRay.x264-x0r.jpg150.9 KB
Wait.Until.Dark.1967.720p.BluRay.x264-x0r[PRiME].mkv2.1 GB
Wait.Until.Dark.1967.720p.BluRay.x264-x0r[TRAILER-Theatrical Trailer][PRiME].mp419.7 MB

Alternative Torrents for 'Wait Until Dark BluRay xrPRiME'.

There are no alternative torrents found.