2019 After The Fall Of New York 1983 1080p BluRay X264-GHOULS[PRiME]

Torrent Details

2019 After The Fall Of New York<span style=color:#777> 1983</span> 1080p BluRay x264<span style=color:#fc9c6d>-GHOULS[PRiME]</span>

NAME
2019 After The Fall Of New York 1983 1080p BluRay x264-GHOULS[PRiME].torrent
CATEGORY
Movies
INFOHASH
d4ce3ff42636fcb7f1989d05f1a6fac9e8f1870b
SIZE
6.6 GB in 5 files
ADDED
Uploaded on 21-04-2017 by our crawler pet called "Spidey".
SWARM
0 seeders & 1 peers
RATING
No votes yet.

Please login to vote for this torrent.


Description


2019.After.The.Fall.Of.New.York.1983.1080p.BluRay.x264-GHOULS[PRiME]

ImDb: http://www.imdb.com/title/tt5819958



Complete name : 2019.after.the.fall.of.new.york.1983.1080p.bluray.x264-ghouls[PRiME].mkv
Format : Matroska
Format version : Version 4 / Version 2
File size : 6.56 GiB
Duration : 1 h 35 min
Overall bit rate : 9 805 kb/s
Encoded date : UTC 2017-04-16 19:29:05
Writing application : mkvmerge v10.0.0 ('To Drown In You') 64bit
Writing library : libebml v1.3.4 + libmatroska v1.4.5

Video
ID : 1
Format : AVC
Format/Info : Advanced Video Codec
Format profile : [email protected]/* */
Format settings, CABAC : Yes
Format settings, ReFrames : 4 frames
Codec ID : V_MPEG4/ISO/AVC
Duration : 1 h 35 min
Bit rate : 9 162 kb/s
Width : 1 920 pixels
Height : 1 040 pixels
Display aspect ratio : 1.85:1
Frame rate mode : Constant
Frame rate : 23.976 (24000/1001) FPS
Color space : YUV
Chroma subsampling : 4:2:0
Bit depth : 8 bits
Scan type : Progressive
Bits/(Pixel*Frame) : 0.191
Stream size : 6.00 GiB (91%)
Writing library : x264 core 148 r2744 b97ae06
Encoding settings : cabac=1 / ref=4 / deblock=1:-3:-3 / analyse=0x3:0x133 / me=umh / subme=8 / psy=1 / psy_rd=1.00:0.00 / mixed_ref=1 / me_range=16 / chroma_me=1 / trellis=1 / 8x8dct=1 / cqm=0 / deadzone=21,11 / fast_pskip=0 / chroma_qp_offset=-2 / threads=6 / lookahead_threads=1 / sliced_threads=0 / nr=0 / decimate=1 / interlaced=0 / bluray_compat=0 / constrained_intra=0 / bframes=3 / b_pyramid=2 / b_adapt=1 / b_bias=0 / direct=3 / weightb=1 / open_gop=0 / weightp=2 / keyint=250 / keyint_min=23 / scenecut=40 / intra_refresh=0 / rc_lookahead=50 / rc=2pass / mbtree=1 / bitrate=9162 / ratetol=1.0 / qcomp=0.60 / qpmin=0 / qpmax=69 / qpstep=4 / cplxblur=20.0 / qblur=0.5 / vbv_maxrate=62500 / vbv_bufsize=78125 / nal_hrd=none / filler=0 / ip_ratio=1.40 / aq=1:1.00
Default : Yes
Forced : No

Audio
ID : 2
Format : AC-3
Format/Info : Audio Coding 3
Mode extension : CM (complete main)
Format settings, Endianness : Big
Codec ID : A_AC3
Duration : 1 h 35 min
Bit rate mode : Constant
Bit rate : 640 kb/s
Channel(s) : 2 channels
Channel positions : Front: L R
Sampling rate : 48.0 kHz
Frame rate : 31.250 FPS (1536 spf)
Compression mode : Lossy
Stream size : 438 MiB (7%)
Language : English
Default : Yes
Forced : No

Menu
00:00:00.000 : en:00:00:00.000
00:07:01.379 : en:00:07:01.379
00:16:10.970 : en:00:16:10.970
00:24:51.990 : en:00:24:51.990
00:37:15.984 : en:00:37:15.984
00:47:03.320 : en:00:47:03.320
00:58:17.327 : en:00:58:17.327
01:11:28.284 : en:01:11:28.284
01:20:49.845 : en:01:20:49.845
01:30:25.170 : en:01:30:25.170





Discussion

Comments 0

Post Your Comment

Files in this torrent

FILENAMESIZE
2019.after.the.fall.of.new.york.1983.1080p.bluray.x264-ghouls[PRiME].mkv6.6 GB
Please Support!! Read More!!!.txt334 B
Sample/2019.after.the.fall.of.new.york.1983.1080p.bluray.x264-ghouls.sample[PRiME].mkv13.2 MB
Subs/2019.after.the.fall.of.new.york.1983.1080p.bluray.x264-ghouls.idx36 KB
Subs/2019.after.the.fall.of.new.york.1983.1080p.bluray.x264-ghouls.sub4.5 MB

Alternative Torrents for 'After Fall Of York BluRay'.

TORRENT NAMEADDEDSIZESEEDSPEERSHEALTH
3/28/20191.2 GB10
1/31/20191.8 GB10
4/21/20174.4 GB12
5/30/20171.8 GB00
4/21/20174.4 GB00
4/21/20176.6 GB01
4/21/20176.6 GB00