The Matrix Resurrections 2021 1080p WEB-DL_от New-Team

Torrent Details


The Matrix Resurrections<span style=color:#777> 2021</span> 1080p WEB-DL_от New<span style=color:#fc9c6d>-Team</span>

NAME
The Matrix Resurrections 2021 1080p WEB-DL_от New-Team.torrent
CATEGORY
Movies
INFOHASH
facc477da709042272dbf8b9cd5ee4597528e91b
SIZE
9.7 GB in 0 files
ADDED
Uploaded on 06-01-2022 by our crawler pet called "Spidey".
SWARM
1 seeders & 1 peers
RATING
No votes yet.

Please login to vote for this torrent.


Description

Матрица: Воскрешение / The Matrix Resurrections



Год выпуска: 2021

Выпущено: США, Village Roadshow Pictures, NPV Entertainment, Silver Pictures

Жанр: Фантастика, боевик

Режиссер: Лана Вачо́вски / Lana Wachowski

В ролях: Киану Ривз, Кэрри-Энн Мосс, Кристина Риччи, Джессика Хенвик, Дэниэл Бернхард, Джонатан Грофф, Приянка Чопра Джонас, Яхья Абдул-Матин II, Эллен Холлман, Джада Пинкетт Смит





О фильме: Что делать, если окружающий мир кажется ловушкой, а самые фантастические сны больше похожи на настоящую жизнь, чем повседневная реальность? Хочешь найти правду? Следуй за белым кроликом, чтобы вернуться туда, где все началось... Обратно в Матрицу.









Продолжительность: 02:27:54

Перевод: Профессиональный (многоголосый, закадровый) Jaskier

Субтитры: Русские, английские



Раздача от:

Автор релиза: JNS82.

Формат: MKV

Качество: WEB-DL 1080p | The.Matrix.Resurrections.2021.1080p.HMAX.WEB-DL.DDP5.1.Atmos.x264-EVO

Видео: MPEG-4 AVC, 8250 Кбит/с, 1920x816

Аудио #1: AC3, 6 ch, 448 Кбит/с | RUS | Tnx.KinoPub

Аудио #2: E-AC3 JOC, 6 ch, 768 Кбит/с | ENG |



MediaInfoОбщее

Уникальный идентификатор : 155345119034009164001877268885764812793 (0x74DE61B390BAB2F68EEE8C5CD367AFF9)

Полное имя : E:TorrentsThe.Matrix.Resurrections.2021.1080p.WEB-DL_от New-Team.mkv

Формат : Matroska

Версия формата : Version 4

Размер файла : 9,74 Гбайт

Продолжительность : 2 ч. 27 м.

Режим общего битрейта : Переменный

Общий поток : 9 428 Кбит/сек

Название фильма : The.Matrix.Resurrections.2021.1080p.WEB-DL_от New-Team

Дата кодирования : UTC 2021-12-24 19:29:05

Программа кодирования : mkvmerge v59.0.0 ('Shining Star') 64-bit

Библиотека кодирования : libebml v1.4.2 + libmatroska v1.6.4



Видео

Идентификатор : 1

Формат : AVC

Формат/Информация : Advanced Video Codec

Профиль формата : [email protected]

Настройки формата : CABAC / 4 Ref Frames

Параметр CABAC формата : Да

Параметр RefFrames формата : 4 кадра

Идентификатор кодека : V_MPEG4/ISO/AVC

Продолжительность : 2 ч. 27 м.

Вид битрейта : Переменный

Битрейт : 8 250 Кбит/сек

Максимальный битрейт : 12,4 Мбит/сек

Ширина : 1 920 пикселей

Высота : 816 пикселей

Соотношение сторон : 2,35:1

Режим частоты кадров : Постоянный

Частота кадров : 23,976 (24000/1001) кадра/сек

Цветовое пространство : YUV

Субдискретизация насыщенности : 4:2:0

Битовая глубина : 8 бит

Тип развёртки : Прогрессивная

Бит/(Пиксели*Кадры) : 0.220

Размер потока : 8,48 Гбайт (87%)

Библиотека кодирования : x264 core 157 r2965 861cec4

Настройки программы : cabac=1 / ref=4 / deblock=1:0:0 / analyse=0x3:0x113 / me=hex / subme=7 / psy=1 / psy_rd=1.00:0.00 / mixed_ref=1 / me_range=16 / chroma_me=1 / trellis=1 / 8x8dct=1 / cqm=0 / deadzone=21,11 / fast_pskip=1 / chroma_qp_offset=-2 / threads=25 / lookahead_threads=4 / sliced_threads=0 / nr=0 / decimate=1 / interlaced=0 / bluray_compat=0 / constrained_intra=0 / bframes=3 / b_pyramid=2 / b_adapt=1 / b_bias=0 / direct=1 / weightb=1 / open_gop=0 / weightp=2 / keyint=96 / keyint_min=96 / scenecut=40 / intra_refresh=0 / rc_lookahead=40 / rc=2pass / mbtree=1 / bitrate=8250 / ratetol=1.0 / qcomp=0.60 / qpmin=0 / qpmax=69 / qpstep=4 / cplxblur=20.0 / qblur=0.5 / vbv_maxrate=12375 / vbv_bufsize=6187 / nal_hrd=vbr / filler=0 / ip_ratio=1.40 / aq=1:1.00

Default : Да

Forced : Нет

Цветовой диапазон : Limited

Основные цвета : BT.709

Характеристики трансфера : BT.709

Коэффициенты матрицы : BT.709



Аудио #1

Идентификатор : 2

Формат : AC-3

Формат/Информация : Audio Coding 3

Коммерческое название : Dolby Digital

Идентификатор кодека : A_AC3

Продолжительность : 2 ч. 27 м.

Вид битрейта : Постоянный

Битрейт : 448 Кбит/сек

Каналы : 6 каналов

Channel layout : L R C LFE Ls Rs

Частота : 48,0 КГц

Частота кадров : 31,250 кадров/сек (1536 SPF)

Метод сжатия : С потерями

Размер потока : 474 Мбайт (5%)

Заголовок : [MVO] Jaskier

Язык : Russian

Service kind : Complete Main

Default : Да

Forced : Нет



Аудио #2

Идентификатор : 3

Формат : E-AC-3 JOC

Формат/Информация : Enhanced AC-3 with Joint Object Coding

Коммерческое название : Dolby Digital Plus with Dolby Atmos

Идентификатор кодека : A_EAC3

Продолжительность : 2 ч. 27 м.

Вид битрейта : Постоянный

Битрейт : 768 Кбит/сек

Каналы : 6 каналов

Channel layout : L R C LFE Ls Rs

Частота : 48,0 КГц

Частота кадров : 31,250 кадров/сек (1536 SPF)

Метод сжатия : С потерями

Размер потока : 813 Мбайт (8%)

Заголовок : English

Язык : English

Service kind : Complete Main

Default : Нет

Forced : Нет

Complexity index : 16

Number of dynamic objects : 15

Bed channel count : 1 канал

Bed channel configuration : LFE



Текст #1

Идентификатор : 4

Формат : UTF-8

Идентификатор кодека : S_TEXT/UTF8

Идентификатор кодека/Информация : UTF-8 Plain Text

Продолжительность : 2 ч. 26 м.

Битрейт : 71 бит/сек

Count of elements : 1788

Размер потока : 76,8 Кбайт (0%)

Заголовок : [full]

Язык : Russian

Default : Нет

Forced : Нет



Текст #2

Идентификатор : 5

Формат : UTF-8

Идентификатор кодека : S_TEXT/UTF8

Идентификатор кодека/Информация : UTF-8 Plain Text

Продолжительность : 2 ч. 27 м.

Битрейт : 51 бит/сек

Count of elements : 2188

Размер потока : 55,8 Кбайт (0%)

Язык : English

Default : Нет

Forced : Нет

Discussion

Comments 0

Post Your Comment

Torrent Files (Unavailable)

Please check back later to get a list of all files included in this torrent.

Alternative Torrents for 'Matrix Resurrections DLот'.

There are no alternative torrents found.